Loading...
Error

Скачать Враг мой / Enemy Mine (Вольфганг Петерсен / Wolfgang Petersen) [1985, фантастика, HDTVRip] [Dub] торрент без регистрации

 
Статистика раздачи
Размер:  2,34 GB   |    Скачан:  193 раза
Сидов:  1  [  0 KB/s  ]  
 
Автор Сообщение

МихаНЕзатор

[] 



Враг мой / Enemy Mine (1985) HDTVRip

Страна: США
Жанр: фантастика
Год выпуска: 1985
Продолжительность: 01:43:38

Перевод: Профессиональный (дублированный) c вставками многоголоски
Перевод: Профессиональный (многоголосый закадровый) - отдельно
Перевод: Авторский (одноголосый закадровый) Живов - отдельно
Cубтитры: русские, английские, французские- отдельно
Оригинальная аудиодорожка: английский - отдельно

Режиссер: Вольфганг Петерсен / Wolfgang Petersen

В ролях: Деннис Куэйд (Willis Davidge), Луис Госсет мл. (Jeriba 'Jerry' Shigan), Брайон Джеймс (Stubbs), Ричард Маркус (Arnold), Кэролин МакКормик (Morse), Бампер Робинсон (Zammis), Джим Мапп (Old Drac), Лэнс Кервин (Joey Wooster), Скотт Крафт (Jonathan), Лу Майклс (Wilson), Энди Гир (Bates), Henry Stolow (Cates)
Дублёры: Вадим Ледогоров (Willis Davidge), Борис Быстров (Jeriba 'Jerry' Shigan)

Описание: В глубинах нашей галактики, на огромном расстоянии от Земли люди ведут кровопролитную войну с расой рептилий. Войну, которой Земля отдает последние силы, войну на полное уничтожение.
В одной из жестоких схваток в окрестностях гористой планеты в системе двойной звезды пилот Виллис Дэвидж сбивает машину чужого, но тут же получает несколько попаданий и выходит из боя.
Единственное место, где можно выжить после падения - та самая планета. Но упав, он обнаруживает, что сбитый им чужой не погиб. Смертельные враги оказываются заперты в одной клетке, и выбор прост - уничтожить друг друга или заключить перемирие и попытаться спастись.
Что окажется сильнее: желание жить или ненависть и боль за погибших?

Доп. информация:

Качество видео: HDTVRip(Исх. HDTVRip 1080)
Формат видео: AVI

Видео: 720x304 (2.37:1), 50 fps, XviD build 50 ~1609 kbps avg, 0.15 bit/pixel
Аудио: 48 kHz, AC3 Dolby Digital, 3/2 (L,C,R,l,r) + LFE ch, ~384 kbps Дубляж с многоголосыми вставками
Аудио: 48 kHz, AC3 Dolby Digital, 3/2 (L,C,R,l,r) + LFE ch, ~448 kbps MVO - отдельно
Аудио: 48 kHz, AC3 Dolby Digital, 4 ch, ~384 kbps Живов - отдельно
Аудио: 48 kHz, AC3 Dolby Digital, 4 ch, ~384 kbps ENG - отдельно
Формат субтитров: softsub (SRT)

File: Vrag moy.chopper887.avi
Filesize: 1491.59 Mb ( 1 564 047 360 bytes )
Play length: 01:43:38.959 (310948 frames)
Subtitles: eng, fra, rus (SubRip format)
Video: 720x304 (2.37:1), 50 fps, XviD build 50 ~1609 kbps avg, 0.15 bit/pixel
Audio: 48 kHz, AC3 Dolby Digital, 3/2 (L,C,R,l,r) + LFE ch, ~384 kbps

General
Complete name : D:Vrag moy.chopper887Vrag moy.chopper887.avi
Format : AVI
Format/Info : Audio Video Interleave
File size : 1.46 GiB
Duration : 1h 43mn
Overall bit rate : 2 012 Kbps
Writing application : VirtualDubMod 1.5.10.3 | www.virtualdub-fr.org || (build 2550/release)
Writing library : VirtualDubMod build 2550/release

Video
ID : 0
Format : MPEG-4 Visual
Format profile : Advanced Simple@L5
Format settings, BVOP : Yes
Format settings, QPel : No
Format settings, GMC : No warppoints
Format settings, Matrix : Custom
Codec ID : XVID
Codec ID/Hint : XviD
Duration : 1h 43mn
Bit rate : 1 609 Kbps
Width : 720 pixels
Height : 304 pixels
Display aspect ratio : 2.35:1
Frame rate : 50.000 fps
Color space : YUV
Chroma subsampling : 4:2:0
Bit depth : 8 bits
Scan type : Progressive
Compression mode : Lossy
Bits/(Pixel*Frame) : 0.147
Stream size : 1.16 GiB (80%)
Writing library : XviD 1.2.1 (UTC 2008-12-04)

Audio
ID : 1
Format : AC-3
Format/Info : Audio Coding 3
Mode extension : CM (complete main)
Codec ID : 2000
Duration : 1h 43mn
Bit rate mode : Constant
Bit rate : 384 Kbps
Channel(s) : 6 channels
Channel positions : Front: L C R, Side: L R, LFE
Sampling rate : 48.0 KHz
Bit depth : 16 bits
Compression mode : Lossy
Stream size : 285 MiB (19%)
Alignment : Split accross interleaves
Interleave, duration : 20 ms (1.00 video frame)
Interleave, preload duration : 500 ms

ПРИЯТНОГО ПРОСМОТРА!

ПОЖАЛУЙСТА НЕ УХОДИТЕ С РОЗДАЧИ!



Скачать Враг.мой.Enemy.Mine.(Вольфганг.Петерсен.Wolfgang.Petersen).[1985.фантастика.HDTVRip].[Dub].torrent без регистрации
Золото ЗОЛОТАЯ РАЗДАЧА! СКАЧАННОЕ НЕ ЗАСЧИТЫВАЕТСЯ! Золото
Дата: Зарегистрирован   [ Тип: внутренний ] Как тут cкачать?
MAGNET ссылка
MAGNET ссылка


Скачать .torrent

13 KB

Статус: проверено DHT
Скачан: торрент - 193 раз, раздача полностью - 100 раз
Размер: 2,34 GB
Оценка:  5 (Голосов: 4)
Поблагодарили: 6
Поделиться ссылкой на эту раздачу с друзьями:
В контактеFacebookОдноклассникиTwitterLivejournalМой МирLiveinternet
 

 

maxcross

[] 

фильм детства спс большое забираю;)
 

Olegek

[] 

maxcross писал(а):

фильм детства спс большое забираю;)
+100500
 
Показать сообщения:    


Вы не можете начинать темы
Вы не можете отвечать на сообщения
Вы не можете редактировать свои сообщения
Вы не можете удалять свои сообщения
Вы не можете голосовать в опросах
Вы не можете прикреплять файлы к сообщениям
Вы можете скачивать файлы