Loading...
Error

Скачать Совершенное оружие / The Perfect Weapon (Марк ДиСалле) [1991 г., боевик, драма, BDRip] [AVO] х3 (Живов, Гаврилов, Дольский) торрент без регистрации

 
Статистика раздачи
Размер:  980 MB   |    Скачан:  156 раз
Сидов:  1  [  0 KB/s  ]  
 
Автор Сообщение

leon030982

[] 

Совершенное оружие / The Perfect Weapon


Страна: США
Жанр: боевик, драма
Год выпуска: 1991
Продолжительность: 01:24:58
Перевод: Авторский (одноголосый, закадровый) 3 варианта
Cубтитры: нет
Режиссер: Марк ДиСалле / Mark DiSalle
В ролях: Джефф Спикмэн, Джон Дай, Мако, Джеймс Хонг, Маришка Харгитей, Крис Ташима, Данте Баско, Бо Старр, Сет Сакаи, профессор Тору Танака


Описание: Молодого Джеффа отец отдает в школу Кенпо в надежде, что тот научится самодисциплине. Годами позже наставника Джеффа мастера Ким начинает преследовать корейская мафия. Джефф пытается помочь, но наставник погибает от рук неизвестного наемного убийцы. Полный желания отомстить, Джефф начинает кровавую войну с корейской мафией, применяя все свои знания боевых искусств.
Качество видео: BDRip
Формат видео: AVI
Видео: 688x384 (1.79:1), 23.976 fps, XviD build 50 ~1026 kbps avg, 0.16 bit/pixel
Аудио 1: 48 kHz, AC3 Dolby Digital, 2/0 (L,R) ch, ~192 kbps | Живов
Аудио 2: 48 kHz, AC3 Dolby Digital, 2/0 (L,R) ch, ~192 kbps | Гаврилов (Отдельно)
Аудио[ 3/b]: 48 kHz, AC3 Dolby Digital, 2/0 (L,R) ch, ~192 kbps | Дольский (Отдельно)




Код:

Общее
Полное имя                       : E:\ФИЛЬМЫ\Perfect.Weapon.1991.BDRip.andre90\Perfect.Weapon.1991.BDRip.avi
Формат                           : AVI
Формат/Информация                : Audio Video Interleave
Размер файла                     : 746 Мбайт
Продолжительность                : 1 ч. 24 м.
Общий поток                      : 1228 Кбит/сек
Программа кодирования            : VirtualDubMod 1.5.10.2 (build 2540/release)
Библиотека кодирования           : VirtualDubMod build 2540/release
Видео
Идентификатор                    : 0
Формат                           : MPEG-4 Visual
Профиль формата                  : Advanced Simple@L5
Параметр BVOP формата            : 1
Параметр QPel формата            : Нет
Параметр GMC формата             : Без точки перехода
Параметр матрицы формата         : Выборочная
Идентификатор кодека             : XVID
Идентификатор кодека/Подсказка   : XviD
Продолжительность                : 1 ч. 24 м.
Битрейт                          : 1026 Кбит/сек
Ширина                           : 688 пикселей
Высота                           : 384 пикселя
Соотношение сторон               : 16:9
Частота кадров                   : 23,976 кадра/сек
Цветовое пространство            : YUV
Субдискретизация насыщенности    : 4:2:0
Битовая глубина                  : 8 бит
Тип развёртки                    : Прогрессивная
Метод сжатия                     : С потерями
Бит/(Пиксели*Кадры)              : 0.162
Размер потока                    : 624 Мбайт (84%)
Библиотека кодирования           : XviD 1.2.1 (UTC 2008-12-04)
Аудио
Идентификатор                    : 1
Формат                           : AC-3
Формат/Информация                : Audio Coding 3
Расширение режима                : CM (complete main)
Идентификатор кодека             : 2000
Продолжительность                : 1 ч. 24 м.
Вид битрейта                     : Постоянный
Битрейт                          : 192 Кбит/сек
Каналы                           : 2 канала
Расположение каналов             : Front: L R
Частота                          : 48,0 КГц
Битовая глубина                  : 16 бит
Метод сжатия                     : С потерями
Размер потока                    : 117 Мбайт (16%)
Выравнивание                     : Разделение по промежуткам
Продолжительность промежутка     : 42  мс. (1,00 видеокадр)
Время предзагрузки промежутка    : 500  мс.



Скачать Совершенное.оружие.The.Perfect.Weapon.(Марк.ДиСалле).[1991.г.боевик.драма.BDRip].[AVO].х3.(Живов.Гаврилов.Дольский).torrent без регистрации
Золото ЗОЛОТАЯ РАЗДАЧА! СКАЧАННОЕ НЕ ЗАСЧИТЫВАЕТСЯ! Золото
Дата: Зарегистрирован   [ Тип: внутренний ] Как тут cкачать?
MAGNET ссылка
MAGNET ссылка


Скачать .torrent

20 KB

Статус: проверено DHT
Скачан: торрент - 156 раз, раздача полностью - 13 раз
Размер: 980 MB
Оценка:  - (Голосов: 0)
Поблагодарили: 2
Поделиться ссылкой на эту раздачу с друзьями:
В контактеFacebookОдноклассникиTwitterLivejournalМой МирLiveinternet
 

 
Показать сообщения:    


Вы не можете начинать темы
Вы не можете отвечать на сообщения
Вы не можете редактировать свои сообщения
Вы не можете удалять свои сообщения
Вы не можете голосовать в опросах
Вы не можете прикреплять файлы к сообщениям
Вы можете скачивать файлы