Loading...
Error

Скачать Я люблю тебя, Филлип Моррис / I Love You Phillip Morris (Гленн Фикарра, Джон Рекуа) [2009, Комедия,мелодрама, HDRip] [Dub] торрент без регистрации

 
Статистика раздачи
Размер:  1,45 GB   |    Скачан:  5169 раз
Сидов:  1  [  0 KB/s  ]  
 
Автор Сообщение

leon030982

[] 

Я люблю тебя, Филлип Моррис / I Love You Phillip Morris

Страна: США
Жанр: Комедия,мелодрама
Год выпуска: 2009
Продолжительность: 01:37:34
Перевод: Профессиональный (дублированный)
Cубтитры: нет
Режиссер: Гленн Фикарра, Джон Рекуа
В ролях: Джим Керри, Эван МакГрегор, Лесли Манн, Родриго Санторо, Дамеон Кларк, Марк Маколей, Дэвид Дженсен, Маркус Лайл Браун, Николас Александр, Майкл Бисли, Энтони Короне, Бреннан Браун, Майкл Мэндел, Энни Голден, Мэрилуиз Берк, Клэй Чамберлен, Луис Хертэм, Моргана Шоу, Джо Крест, Грифф Ферст, Онжаню Эллис, Майкл Шауэрс

Описание: Стивен Расселл — образцовый отец семейства — в результате дерзкой аферы оказывается в техасской тюрьме. Там он без памяти влюбляется в своего сокамерника, Филлипа Морриса. После выхода последнего на свободу, Рассел решается на побег...

Качество видео: HDRip
Формат видео: AVI
Видео: XviD, 1676 Кбит/с, 720x400
Аудио: AC3, 6 ch, 448 Кбит/с

General
Complete name : F:\Фильмы\Ya.lyublyub.tebya.Fillip.Moris.2009.XviD.DVDRip.(HDRip).avi
Format : AVI
Format/Info : Audio Video Interleave
File size : 1.45 GiB
Duration : 1h 37mn
Overall bit rate : 2 133 Kbps
Writing application : VirtualDubMod 1.5.10.2 (build 2540/release)
Writing library : VirtualDubMod build 2540/release
Video
ID : 0
Format : MPEG-4 Visual
Format profile : Advanced Simple@L5
Format settings, BVOP : 1
Format settings, QPel : No
Format settings, GMC : No warppoints
Format settings, Matrix : Default (MPEG)
Muxing mode : Packed bitstream
Codec ID : XVID
Codec ID/Hint : XviD
Duration : 1h 37mn
Bit rate : 1 676 Kbps
Width : 720 pixels
Height : 400 pixels
Display aspect ratio : 16:9
Frame rate : 24.000 fps
Color space : YUV
Chroma subsampling : 4:2:0
Bit depth : 8 bits
Scan type : Progressive
Compression mode : Lossy
Bits/(Pixel*Frame) : 0.242
Stream size : 1.14 GiB (79%)
Writing library : XviD 1.2.1 (UTC 2008-12-04)
Audio
ID : 1
Format : AC-3
Format/Info : Audio Coding 3
Mode extension : CM (complete main)
Codec ID : 2000
Duration : 1h 37mn
Bit rate mode : Constant
Bit rate : 448 Kbps
Channel(s) : 6 channels
Channel positions : Front: L C R, Side: L R, LFE
Sampling rate : 48.0 KHz
Bit depth : 16 bits
Compression mode : Lossy
Stream size : 313 MiB (21%)
Alignment : Split accross interleaves
Interleave, duration : 42 ms (1.00 video frame)
Interleave, preload duration : 500 ms



Скачать Я.люблю.тебя.Филлип.Моррис.I.Love.You.Phillip.Morris.(Гленн.Фикарра.Джон.Рекуа).[2009.Комедия.мелодрама.HDRip].[Dub].torrent без регистрации
Золото ЗОЛОТАЯ РАЗДАЧА! СКАЧАННОЕ НЕ ЗАСЧИТЫВАЕТСЯ! Золото
Дата: Зарегистрирован   [ Тип: внутренний ] Как тут cкачать?
MAGNET ссылка
MAGNET ссылка


Скачать .torrent

15 KB

Статус: проверено DHT
Скачан: торрент - 5169 раз, раздача полностью - 201 раз
Размер: 1,45 GB
Оценка:  5 (Голосов: 1)
Поблагодарили: 5
Поделиться ссылкой на эту раздачу с друзьями:
В контактеFacebookОдноклассникиTwitterLivejournalМой МирLiveinternet
 

 
Показать сообщения:    


Вы не можете начинать темы
Вы не можете отвечать на сообщения
Вы не можете редактировать свои сообщения
Вы не можете удалять свои сообщения
Вы не можете голосовать в опросах
Вы не можете прикреплять файлы к сообщениям
Вы можете скачивать файлы