Loading...
Error

Скачать Луна 44 / Moon 44 (Роланд Эммерих) [1990, боевик, фантастика, триллер, BDRip-AVC] [Dub]+[MVO]x2+[DVO]+[Sub] торрент без регистрации

 
Статистика раздачи
Размер:  2,72 GB   |    Скачан:  138 раз
Сидов:  1  [  0 KB/s  ]  
 
Автор Сообщение

Marsianka

[] 

Информация о фильме
Название: Луна 44
Оригинальное название: Moon 44
Год выпуска: 1990
Жанр: боевик, фантастика, триллер
Режиссер: Роланд Эммерих
В ролях: Майкл Паре, Лиза Айкхорн, Дин Девлин, Брайан Томпсон, Малкольм МакДауэлл, Стивен Джеффрис, Леон Риппи, Йохен Никель, Мехмет Йилмаз, Джон Марч

Описание: Галактическая Горнодобывающая Корпорация получает информацию о том, что их роботы похищаются с Луны-44, и отправляет на станцию детектива Стоуна для расследования. Стоун вынужден действовать под прикрытием в качестве одного из заключенных, которых отправляют на Луну 44, чтобы пилотировать специальные вертолеты. Но он не знает, что командир станции майор Ли проинструктирован в случае нападения на Луну-44 пожертвовать людьми ради спасения роботов. И когда детектив выслеживает предателей, ему приходится сражаться на два фронта, пытаясь спасти и людей, и роботов от уничтожения.



Страна: Германия (ФРГ)
Студия: Centropolis Film Productions
Продолжительность: 01:39:18
Перевод: Дублированный, профессиональный многоголосый, профессиональный двухголосый

Файл
Качество: BDRip (AVC)
Видео: MPEG-4 AVC, 2700 Кбит/с, 1024x434, 24.000 кадр/с
Аудио #1: Русский (AC3, 2 ch, 192 Кбит/с) / Профессиональный многоголосый (CP Digital)
Аудио #2: Русский (AC3, 2 ch, 192 Кбит/с) / Дублированный (VHS)
Аудио #3: Русский (AC3, 2 ch, 192 Кбит/с) / Профессиональный многоголосый (Первый канал)
Аудио #4: Русский (AC3, 6 ch, 384 Кбит/с) / Профессиональный двухголосый
Аудио #5: Английский (AC3, 2 ch, 256 Кбит/с)
Субтитры: Русские
Семпл
Общее
Уникальный идентификатор : 223490344590594135534077128555595099306 (0xA822ACB8AB96E460A7A050B31140ECAA)
Полное имя : D:Mои раздачиLuna.44.1990.BDRip.(AVC)-MediaClub.mkv
Формат : Matroska
Версия формата : Version 4 / Version 2
Размер файла : 2,72 Гбайт
Продолжительность : 1 ч. 39 м.
Общий поток : 3919 Кбит/сек
Название фильма : -=MediaClub-kaspr=-
Дата кодирования : UTC 2013-09-17 16:54:12
Программа кодирования : mkvmerge v6.3.0 ('You can't stop me!') built on Jul 19 2013 16:27:38
Библиотека кодирования : libebml v1.3.0 + libmatroska v1.4.1

Видео
Идентификатор : 1
Формат : AVC
Формат/Информация : Advanced Video Codec
Профиль формата : High@L4.1
Параметр CABAC формата : Да
Параметр ReFrames формата : 9 кадров
Идентификатор кодека : V_MPEG4/ISO/AVC
Продолжительность : 1 ч. 39 м.
Битрейт : 2700 Кбит/сек
Ширина : 1024 пикселя
Высота : 434 пикселя
Соотношение сторон : 2,35:1
Режим частоты кадров : Постоянный
Частота кадров : 24,000 кадра/сек
Цветовое пространство : YUV
Субдискретизация насыщенности : 4:2:0
Битовая глубина : 8 бит
Тип развёртки : Прогрессивная
Бит/(Пиксели*Кадры) : 0.253
Размер потока : 1,82 Гбайт (67%)
Заголовок : -=MediaClub-kaspr=-
Библиотека кодирования : x264 core 130 r2273 b3065e6
Настройки программы : cabac=1 / ref=9 / deblock=1:-3:-3 / analyse=0x3:0x133 / me=umh / subme=11 / psy=1 / psy_rd=1.00:0.20 / mixed_ref=1 / me_range=48 / chroma_me=1 / trellis=2 / 8x8dct=1 / cqm=0 / deadzone=21,11 / fast_pskip=0 / chroma_qp_offset=-3 / threads=12 / lookahead_threads=3 / sliced_threads=0 / nr=0 / decimate=0 / interlaced=0 / bluray_compat=0 / constrained_intra=0 / bframes=10 / b_pyramid=2 / b_adapt=2 / b_bias=0 / direct=3 / weightb=1 / open_gop=0 / weightp=2 / keyint=240 / keyint_min=24 / scenecut=40 / intra_refresh=0 / rc=2pass / mbtree=0 / bitrate=2700 / ratetol=1.0 / qcomp=0.60 / qpmin=0 / qpmax=69 / qpstep=4 / cplxblur=20.0 / qblur=0.5 / ip_ratio=1.40 / pb_ratio=1.30 / aq=1:1.00
Default : Да
Forced : Да

Аудио #1
Идентификатор : 2
Формат : AC-3
Формат/Информация : Audio Coding 3
Расширение режима : CM (complete main)
Параметр Endianness формата : Big
Идентификатор кодека : A_AC3
Продолжительность : 1 ч. 39 м.
Вид битрейта : Постоянный
Битрейт : 192 Кбит/сек
Каналы : 2 канала
Расположение каналов : Front: L R
Частота : 48,0 КГц
Битовая глубина : 16 бит
Метод сжатия : С потерями
Размер потока : 136 Мбайт (5%)
Заголовок : CP Digital
Язык : Russian
Default : Да
Forced : Да

Аудио #2
Идентификатор : 3
Формат : AC-3
Формат/Информация : Audio Coding 3
Расширение режима : CM (complete main)
Параметр Endianness формата : Big
Идентификатор кодека : A_AC3
Продолжительность : 1 ч. 39 м.
Вид битрейта : Постоянный
Битрейт : 192 Кбит/сек
Каналы : 2 канала
Расположение каналов : Front: L R
Частота : 48,0 КГц
Битовая глубина : 16 бит
Метод сжатия : С потерями
Размер потока : 136 Мбайт (5%)
Заголовок : VHS-Dub
Язык : Russian
Default : Нет
Forced : Нет

Аудио #3
Идентификатор : 4
Формат : AC-3
Формат/Информация : Audio Coding 3
Расширение режима : CM (complete main)
Параметр Endianness формата : Big
Идентификатор кодека : A_AC3
Продолжительность : 1 ч. 39 м.
Вид битрейта : Постоянный
Битрейт : 192 Кбит/сек
Каналы : 2 канала
Расположение каналов : Front: L R
Частота : 48,0 КГц
Битовая глубина : 16 бит
Метод сжатия : С потерями
Размер потока : 136 Мбайт (5%)
Заголовок : 1 Chanell
Язык : Russian
Default : Нет
Forced : Нет

Аудио #4
Идентификатор : 5
Формат : AC-3
Формат/Информация : Audio Coding 3
Расширение режима : CM (complete main)
Параметр Endianness формата : Big
Идентификатор кодека : A_AC3
Продолжительность : 1 ч. 39 м.
Вид битрейта : Постоянный
Битрейт : 384 Кбит/сек
Каналы : 6 каналов
Расположение каналов : Front: L C R, Side: L R, LFE
Частота : 48,0 КГц
Битовая глубина : 16 бит
Метод сжатия : С потерями
Размер потока : 273 Мбайт (10%)
Заголовок : P2-6ch
Язык : Russian
Default : Нет
Forced : Нет

Аудио #5
Идентификатор : 6
Формат : AC-3
Формат/Информация : Audio Coding 3
Расширение режима : CM (complete main)
Параметр Endianness формата : Big
Идентификатор кодека : A_AC3
Продолжительность : 1 ч. 39 м.
Вид битрейта : Постоянный
Битрейт : 256 Кбит/сек
Каналы : 2 канала
Расположение каналов : Front: L R
Частота : 48,0 КГц
Битовая глубина : 16 бит
Метод сжатия : С потерями
Размер потока : 182 Мбайт (7%)
Заголовок : Original
Язык : English
Default : Нет
Forced : Нет

Текст
Идентификатор : 7
Формат : UTF-8
Идентификатор кодека : S_TEXT/UTF8
Идентификатор кодека/Информация : UTF-8 Plain Text
Язык : Russian
Default : Нет
Forced : Нет

Меню
00:00:00.000 : en:Chapter 01
00:05:45.292 : en:Chapter 02
00:11:09.708 : en:Chapter 03
00:14:59.000 : en:Chapter 04
00:21:13.250 : en:Chapter 05
00:24:47.916 : en:Chapter 06
00:30:05.417 : en:Chapter 07
00:37:56.417 : en:Chapter 08
00:42:54.417 : en:Chapter 09
00:46:18.375 : en:Chapter 10
00:53:50.958 : en:Chapter 11
01:00:58.583 : en:Chapter 12
01:07:23.625 : en:Chapter 13
01:13:34.125 : en:Chapter 14
01:16:26.000 : en:Chapter 15
01:23:39.375 : en:Chapter 16
01:33:21.292 : en:Chapter 17
01:35:46.832 : en:Chapter 18
Релиз:



Скачать Луна.44.Moon.44.(Роланд.Эммерих).[1990.боевик.фантастика.триллер.BDRip-AVC].[Dub]+[MVO]x2+[DVO]+[Sub].torrent без регистрации
Золото ЗОЛОТАЯ РАЗДАЧА! СКАЧАННОЕ НЕ ЗАСЧИТЫВАЕТСЯ! Золото
Дата: Зарегистрирован   [ Тип: внутренний ] Как тут cкачать?
MAGNET ссылка
MAGNET ссылка


Скачать .torrent

14 KB

Статус: проверено DHT
Скачан: торрент - 138 раз, раздача полностью - 18 раз
Размер: 2,72 GB
Оценка:  5 (Голосов: 1)
Поблагодарили: 3
Поделиться ссылкой на эту раздачу с друзьями:
В контактеFacebookОдноклассникиTwitterLivejournalМой МирLiveinternet
 

 
Показать сообщения:    


Вы не можете начинать темы
Вы не можете отвечать на сообщения
Вы не можете редактировать свои сообщения
Вы не можете удалять свои сообщения
Вы не можете голосовать в опросах
Вы не можете прикреплять файлы к сообщениям
Вы можете скачивать файлы