Loading...
Error

Скачать Годзилла против Биолланте / Gojira vs. Biorante (Кадзуки Омори) [1989, ужасы, фантастика, боевик, драма, BDRip-AVC] [MVO]+[Sub] торрент без регистрации

 
Статистика раздачи
Размер:  3,22 GB   |    Скачан:  133 раза
Сидов:  1  [  0 KB/s  ]  
 
Автор Сообщение

Marsianka

[] 

Информация о фильме
Название: Годзилла против Биолланте
Оригинальное название: Gojira vs. Biorante
Год выхода: 1989
Жанр: ужасы, фантастика, боевик, драма
Режиссер: Кадзуки Омори
В ролях: Кунихико Митамура, Ёсико Танака, Масанобу Такашима, Кодзи Такахаси, Тору Минегиши, Мегуми Одака, Тошиюки Нагашима, Рюноскэ Канэда, Казума Мацубара, Ясунори Юге

О фильме:
Гениальный ученый Шурагами создал супер организм Биорант, используя для этого радиоактивные клетки Годзиллы, за которыми охотится международная мафия. А в это время извержение вулкана возродило спящего на дне Токийского залива Годзиллу к жизни. Жители Япония в панике встреча двух монстров неизбежна и выживет только один из них. И на этот случай силы обороны приготовили своё новое оружие «Супер Икс-2», с помощью которого они готовы уничтожить уцелевшего монстра.



Страна: Япония
Студия: Toho Company, Toho Eizo Co., Toho Film (Eiga) Co. Ltd.
Продолжительность: 01:44:51
Перевод: Профессиональный многоголосый

Файл
Кодек: x264
Качество: BDRip-AVC
Видео: MPEG-4 AVC, 3500 Кбит/с, 1024x554, 23.976 кадр/с
1. Русский (АС3, 2 ch, 192 Кбит/с) / Профессиональный многоголосый
2. Английский (АС3, 2 ch, 256 Кбит/с)
3. Японский (АС3, 6 ch, 448 Кбит/с)
Субтитры: Русские, английские
Общее
Уникальный идентификатор : 248939374366524186061970357028557692055 (0xBB47FAC353ACF3B1A53C9806E7901C97)
Полное имя : Godzilla.protiv.Biollante.1989.x264.BDRip(AVC)-MediaClub.mkv
Формат : Matroska
Версия формата : Version 2
Размер файла : 3,22 Гбайт
Продолжительность : 1 ч. 44 м.
Общий поток : 4398 Кбит/сек
Название фильма : Release - MediaClub Rip by == vvmon ==
Дата кодирования : UTC 2013-09-17 14:57:26
Программа кодирования : mkvmerge v5.4.0 ('Piper') built on Mar 10 2012 13:34:39
Библиотека кодирования : libebml v1.2.3 + libmatroska v1.3.0

Видео
Идентификатор : 1
Формат : AVC
Формат/Информация : Advanced Video Codec
Профиль формата : High@L4.1
Параметр CABAC формата : Да
Параметр ReFrames формата : 8 кадров
Идентификатор кодека : V_MPEG4/ISO/AVC
Продолжительность : 1 ч. 44 м.
Битрейт : 3500 Кбит/сек
Ширина : 1024 пикселя
Высота : 554 пикселя
Соотношение сторон : 1,85:1
Режим частоты кадров : Постоянный
Частота кадров : 23,976 кадра/сек
Цветовое пространство : YUV
Субдискретизация насыщенности : 4:2:0
Битовая глубина : 8 бит
Тип развёртки : Прогрессивная
Бит/(Пиксели*Кадры) : 0.257
Размер потока : 2,50 Гбайт (78%)
Заголовок : Godzilla.protiv.Biollante.1989.x264.BDRip(AVC)-MediaClub.mkv
Библиотека кодирования : x264 core 133 r2334 a3ac64b
Настройки программы : cabac=1 / ref=8 / deblock=1:-2:-2 / analyse=0x3:0x133 / me=umh / subme=11 / psy=1 / psy_rd=1.00:0.00 / mixed_ref=1 / me_range=48 / chroma_me=1 / trellis=2 / 8x8dct=1 / cqm=0 / deadzone=21,11 / fast_pskip=0 / chroma_qp_offset=-2 / threads=3 / lookahead_threads=1 / sliced_threads=0 / nr=0 / decimate=0 / interlaced=0 / bluray_compat=0 / constrained_intra=0 / bframes=8 / b_pyramid=2 / b_adapt=2 / b_bias=0 / direct=3 / weightb=1 / open_gop=0 / weightp=2 / keyint=240 / keyint_min=23 / scenecut=40 / intra_refresh=0 / rc=2pass / mbtree=0 / bitrate=3500 / ratetol=1.0 / qcomp=0.60 / qpmin=10 / qpmax=51 / qpstep=4 / cplxblur=20.0 / qblur=0.5 / ip_ratio=1.40 / pb_ratio=1.30 / aq=2:1.00
Язык : English
Default : Да
Forced : Нет

Аудио #1
Идентификатор : 2
Формат : AC-3
Формат/Информация : Audio Coding 3
Расширение режима : CM (complete main)
Параметр Endianness формата : Big
Идентификатор кодека : A_AC3
Продолжительность : 1 ч. 44 м.
Вид битрейта : Постоянный
Битрейт : 192 Кбит/сек
Каналы : 2 канала
Расположение каналов : Front: L R
Частота : 48,0 КГц
Битовая глубина : 16 бит
Метод сжатия : С потерями
Размер потока : 144 Мбайт (4%)
Заголовок : Профессиональный многоголосый
Язык : Russian
Default : Да
Forced : Нет

Аудио #2
Идентификатор : 3
Формат : AC-3
Формат/Информация : Audio Coding 3
Расширение режима : CM (complete main)
Параметр Endianness формата : Big
Идентификатор кодека : A_AC3
Продолжительность : 1 ч. 44 м.
Вид битрейта : Постоянный
Битрейт : 256 Кбит/сек
Каналы : 2 канала
Расположение каналов : Front: L R
Частота : 48,0 КГц
Битовая глубина : 16 бит
Метод сжатия : С потерями
Размер потока : 192 Мбайт (6%)
Заголовок : Английский
Язык : English
Default : Нет
Forced : Нет

Аудио #3
Идентификатор : 4
Формат : AC-3
Формат/Информация : Audio Coding 3
Расширение режима : CM (complete main)
Параметр Endianness формата : Big
Идентификатор кодека : A_AC3
Продолжительность : 1 ч. 44 м.
Вид битрейта : Постоянный
Битрейт : 448 Кбит/сек
Каналы : 6 каналов
Расположение каналов : Front: L C R, Side: L R, LFE
Частота : 48,0 КГц
Битовая глубина : 16 бит
Метод сжатия : С потерями
Размер потока : 336 Мбайт (10%)
Заголовок : Японский
Язык : Japanese
Default : Нет
Forced : Нет

Текст #1
Идентификатор : 5
Формат : UTF-8
Идентификатор кодека : S_TEXT/UTF8
Идентификатор кодека/Информация : UTF-8 Plain Text
Заголовок : Русские
Язык : Russian
Default : Да
Forced : Нет

Текст #2
Идентификатор : 6
Формат : UTF-8
Идентификатор кодека : S_TEXT/UTF8
Идентификатор кодека/Информация : UTF-8 Plain Text
Заголовок : Английские
Язык : English
Default : Нет
Forced : Нет
---[Information] [15.09.2013 13:35:48] x264 [info]: frame I:913 Avg QP:17.56 size: 64478
---[Information] [15.09.2013 13:35:48] x264 [info]: frame P:32403 Avg QP:20.21 size: 31154
---[Information] [15.09.2013 13:35:48] x264 [info]: frame B:117525 Avg QP:21.75 size: 14328
За постер огромное спасибо команде Media-Art-Club
Релиз от: Rip by



Скачать Годзилла.против.Биолланте.Gojira.vs.Biorante.(Кадзуки.Омори).[1989.ужасы.фантастика.боевик.драма.BDRip-AVC].[MVO]+[Sub].torrent без регистрации
Золото ЗОЛОТАЯ РАЗДАЧА! СКАЧАННОЕ НЕ ЗАСЧИТЫВАЕТСЯ! Золото
Дата: Зарегистрирован   [ Тип: внутренний ] Как тут cкачать?
MAGNET ссылка
MAGNET ссылка


Скачать .torrent

17 KB

Статус: проверено DHT
Скачан: торрент - 133 раз, раздача полностью - 29 раз
Размер: 3,22 GB
Оценка:  - (Голосов: 0)
Поблагодарили: 1
Поделиться ссылкой на эту раздачу с друзьями:
В контактеFacebookОдноклассникиTwitterLivejournalМой МирLiveinternet
 

 
Показать сообщения:    


Вы не можете начинать темы
Вы не можете отвечать на сообщения
Вы не можете редактировать свои сообщения
Вы не можете удалять свои сообщения
Вы не можете голосовать в опросах
Вы не можете прикреплять файлы к сообщениям
Вы можете скачивать файлы