Loading...
Error

Скачать Благородный Дом / Noble House (01-04 из 04) (Гэри Нельсон) [1988, триллер, драма, приключения, DVDRip] [VO] торрент без регистрации

 
Статистика раздачи
Размер:  5,82 GB   |    Скачан:  128 раз
Сидов:  1  [  0 KB/s  ]  
 
Автор Сообщение

МихаНЕзатор

[] 

Страна: США
Производство: De Laurentiis Entertainment Group (DEG)
Жанр: триллер, драма, приключения
Год выпуска: 1988

Продолжительность: 4 x ~ 01:30:00

Перевод: Любительский одноголосый

Оригинальная аудиодорожка: Английская

Cубтитры: Нет

Режиссер: Гэри Нельсон

В ролях: Пирс Броснан, Дебора Раффин, Бен Мастерс, Кейт Боннар, Тиа Каррере, Най Ди, Ричард Дерден, Денхолм Эллиотт, Брайан Фонг, Джон Фуджиока, Хелен Фунаи, Джон Хаусмен, Джордж Иннес, Гордон Джексон, Нэнси Кван, Берт Куок, Харрис Ласкэвей, Стивен Винсент Ли, Кэй Тонг Лим, Леон Лиссек



Описание: Ян Данросс блестящий бизнесмен и выдающийся знаток культуры, традиций, обычаев Востока. Он возглавляет могущественную компанию «Нобл-Хаус», основанную почти два века назад и обеспечивающую колоссальную долю в преуспевающей экономике Гонконга. Но успех компании под угрозой. Чтобы спасти предприятие, Яну необходимо найти человека, который смог бы помешать коварным замыслам

Исходник: DVD9 R2

Тип релиза: DVDRip

Контейнер: AVI

Видео: 720x400 (1.80:1), 23.976 fps, XviD ~1844 kbps avg, 0.27 bit/pixel
Аудио: #1: 48 kHz, AC3 2.0 ~224.00 kbps avg (RUS)
Аудио: #2: 48 kHz, AC3 2.0 ~224.00 kbps avg (ENG)

Релиз группа: Автор рипа:
Общее
Полное имя : D:1АААБлагородный Дом1 серия.avi
Формат : AVI
Формат/Информация : Audio Video Interleave
Размер файла : 1,46 Гбайт
Продолжительность : 1 ч. 30 м.
Общий поток : 2308 Кбит/сек
Программа кодирования : VirtualDubMod 1.5.10.2 (build 2540/release)
Библиотека кодирования : VirtualDubMod build 2540/release

Видео
Идентификатор : 0
Формат : MPEG-4 Visual
Профиль формата : Advanced Simple@L5
Параметр BVOP формата : 2
Параметр QPel формата : Нет
Параметр GMC формата : Без точки перехода
Параметр матрицы формата : Default (MPEG)
Режим смешивания : Сжатый битовый поток
Идентификатор кодека : XVID
Идентификатор кодека/Подсказка : XviD
Продолжительность : 1 ч. 30 м.
Битрейт : 1846 Кбит/сек
Ширина : 720 пикселей
Высота : 400 пикселей
Соотношение сторон : 16:9
Частота кадров : 23,976 кадра/сек
Цветовое пространство : YUV
Субдискретизация насыщенности : 4:2:0
Битовая глубина : 8 бит
Тип развёртки : Прогрессивная
Метод сжатия : С потерями
Бит/(Пиксели*Кадры) : 0.267
Размер потока : 1,16 Гбайт (80%)
Библиотека кодирования : XviD 1.2.1 (UTC 2008-12-04)

Аудио #1
Идентификатор : 1
Формат : AC-3
Формат/Информация : Audio Coding 3
Расширение режима : CM (complete main)
Параметр Endianness формата : Big
Идентификатор кодека : 2000
Продолжительность : 1 ч. 30 м.
Вид битрейта : Постоянный
Битрейт : 224 Кбит/сек
Каналы : 2 канала
Расположение каналов : Front: L R
Частота : 48,0 КГц
Битовая глубина : 16 бит
Метод сжатия : С потерями
Размер потока : 145 Мбайт (10%)
Выравнивание : Разделение по промежуткам
Продолжительность промежутка : 42 мс. (1,00 видеокадр)
Время предзагрузки промежутка : 500 мс.

Аудио #2
Идентификатор : 2
Формат : AC-3
Формат/Информация : Audio Coding 3
Расширение режима : CM (complete main)
Параметр Endianness формата : Big
Идентификатор кодека : 2000
Продолжительность : 1 ч. 30 м.
Вид битрейта : Постоянный
Битрейт : 224 Кбит/сек
Каналы : 2 канала
Расположение каналов : Front: L R
Частота : 48,0 КГц
Битовая глубина : 16 бит
Метод сжатия : С потерями
Размер потока : 145 Мбайт (10%)
Выравнивание : Разделение по промежуткам
Продолжительность промежутка : 42 мс. (1,00 видеокадр)
Время предзагрузки промежутка : 500 мс.



Скачать Благородный.Дом.Noble.House.(01-04.из.04).(Гэри.Нельсон).[1988.триллер.драма.приключения.DVDRip].[VO].torrent без регистрации
Золото ЗОЛОТАЯ РАЗДАЧА! СКАЧАННОЕ НЕ ЗАСЧИТЫВАЕТСЯ! Золото
Дата: Зарегистрирован   [ Тип: внутренний ] Как тут cкачать?
MAGNET ссылка
MAGNET ссылка


Скачать .torrent

30 KB

Статус: проверено DHT
Скачан: торрент - 128 раз, раздача полностью - 24 раз
Размер: 5,82 GB
Оценка:  - (Голосов: 0)
Поблагодарили: 1
Поделиться ссылкой на эту раздачу с друзьями:
В контактеFacebookОдноклассникиTwitterLivejournalМой МирLiveinternet
 

 
Показать сообщения:    


Вы не можете начинать темы
Вы не можете отвечать на сообщения
Вы не можете редактировать свои сообщения
Вы не можете удалять свои сообщения
Вы не можете голосовать в опросах
Вы не можете прикреплять файлы к сообщениям
Вы можете скачивать файлы