Loading...
Error

Скачать Пуленепробиваемый / Bulletproof (Эрнест Р. Дикерсон) [1996, боевик, комедия, криминал, приключения, BDRip] [AVO] (Ю.Живов) торрент без регистрации

 
Статистика раздачи
Размер:  1,3 GB   |    Скачан:  5306 раз
Сидов:  1  [  0 KB/s  ]  
 
Автор Сообщение

leon030982

[] 

Пуленепробиваемый / Bulletproof




Год выхода: 1996
Жанр: боевик, комедия, криминал, приключения
Страна: США
Продолжительность: 01:24:24
Перевод: Авторский (одноголосный, закадровый)[Ю.Живов]

Режиссер: Эрнест Р. Дикерсон

В ролях: Дэймон Уайенс, Адам Сэндлер, Джеймс Каан, Джип Свенсон, Джеймс Фарентино, Кристен Уилсон

О фильме: По сюжету Китс и Моузес лучшие друзья. Китс — полицейский под прикрытием, его цель схватить главного наркобарона, который является боссом Моузеса, который в свою очередь ни о чем не подозревает. При попытке задержать участников наркокартеля Моузес, убегая, стреляет своему другу в голову, но тот выживает. После этого инцидента их дружба переходит совсем в другую стадию…

«Пуленепробиваемый» получился в лучших традициях жанра. Перестрелки сопровождаются хорошей порцией шуток и комических ситуаций. Хотя юмора в этом фильме гораздо больше чем экшена. Фильм безусловно очень смешной, и это его главный плюс.



Качество: BDRip [исх. Blu-ray disc 1080p]
Видео кодек: XviD
Аудио кодек: AC3
Видео: 720x304 (2.37:1), 23.976 fps, XviD build 50 ~2008 kbps avg, 0.38 bit/pixel
Звук: 48 kHz, AC3 Dolby Digital, 2/0 (L,R) ch, ~192.00 kbps avg
General
Complete name : E:\INTERNET\Puleneprobivaemyj.1996.BDRip.[AVO] (Jyvov).avi
Format : AVI
Format/Info : Audio Video Interleave
File size : 1.30 GiB
Duration : 1h 24mn
Overall bit rate : 2 210 Kbps
Writing application : VirtualDubMod 1.5.10.3 (build 2550/release)
Writing library : VirtualDubMod build 2550/release
Video
ID : 0
Format : MPEG-4 Visual
Format profile : Advanced Simple@L5
Format settings, BVOP : Yes
Format settings, QPel : No
Format settings, GMC : No warppoints
Format settings, Matrix : Custom
Codec ID : XVID
Codec ID/Hint : XviD
Duration : 1h 24mn
Bit rate : 2 009 Kbps
Width : 720 pixels
Height : 304 pixels
Display aspect ratio : 2.35:1
Frame rate : 23.976 fps
Color space : YUV
Chroma subsampling : 4:2:0
Bit depth : 8 bits
Scan type : Progressive
Bits/(Pixel*Frame) : 0.383
Stream size : 1.18 GiB (91%)
Writing library : XviD 1.2.1 (UTC 2008-12-04)

Audio
ID : 1
Format : AC-3
Format/Info : Audio Coding 3
Mode extension : CM (complete main)
Codec ID : 2000
Duration : 1h 24mn
Bit rate mode : Constant
Bit rate : 192 Kbps
Channel(s) : 2 channels
Channel positions : Front: L R
Sampling rate : 48.0 KHz
Bit depth : 16 bits
Stream size : 116 MiB (9%)
Alignment : Split accross interleaves
Interleave, duration : 42 ms (1.00 video frame)
Interleave, preload duration : 500 ms



Скачать Пуленепробиваемый.Bulletproof.(Эрнест.Р.Дикерсон).[1996.боевик.комедия.криминал.приключения.BDRip].[AVO].(Ю.Живов).torrent без регистрации
Золото ЗОЛОТАЯ РАЗДАЧА! СКАЧАННОЕ НЕ ЗАСЧИТЫВАЕТСЯ! Золото
Дата: Зарегистрирован   [ Тип: внутренний ] Как тут cкачать?
MAGNET ссылка
MAGNET ссылка


Скачать .torrent

14 KB

Статус: проверено DHT
Скачан: торрент - 5306 раз, раздача полностью - 12 раз
Размер: 1,3 GB
Оценка:  5 (Голосов: 1)
Поблагодарили: 1
Поделиться ссылкой на эту раздачу с друзьями:
В контактеFacebookОдноклассникиTwitterLivejournalМой МирLiveinternet
 

 
Показать сообщения:    


Вы не можете начинать темы
Вы не можете отвечать на сообщения
Вы не можете редактировать свои сообщения
Вы не можете удалять свои сообщения
Вы не можете голосовать в опросах
Вы не можете прикреплять файлы к сообщениям
Вы можете скачивать файлы