Loading...
Error

Скачать Обезумевший / Безумие / The Maddening (Дэнни Хьюстон) [1995, триллер, DVDRip] [DVO]+[AVO] торрент без регистрации

 
Статистика раздачи
Размер:  1,45 GB   |    Скачан:  100 раз
Сидов:  1  [  0 KB/s  ]  
 
Автор Сообщение

Marsianka

[] 

Информация о фильме
Название: Обезумевший / Безумие
Оригинальное название: The Maddening
Год выхода: 1995
Жанр: триллер
Режиссер: Дэнни Хьюстон
В ролях: Берт Рейнолдс, Миа Сара, Энджи Дикинсон, Брайан Уиммер, Джош Мостел, Уильям Хикки, Кендес Хатсон

О фильме:
Зачастую опрометчивые поступки только усугубляют дело. Вот и Кэсси, решившая в отместку мужу за его очередную командировку поехать отвлечься, попадает в смертельную ловушку. По дороге на автозаправке она встречает приветливого и услужливого мужчину. Но оказалось, что в перечень его услуг входят и совершенно неожиданные



Страна: США
Студия: Trimark Pictures
Продолжительность: 01:32:40
Перевод: Профессиональный (двухголосый закадровый), авторский (одноголосый закадровый)

Файл
Кодек: XviD
Качество: DVDRip
Видео: 1644 Кбит/с, 704x528, 25.000 кадр/с
1: Русский (АС3, 2 ch, 192 Кбит/с) Профессиональный двухголосый
2: Русский (АС3, 2 ch, 192 Кбит/с) Авторский одноголосый [Андрей Гаврилов]
3: Английский (АС3, 2 ch, 192 Кбит/с)

Полное имя : The.Maddening.1995.XviD.DVDRip.avi
Формат : AVI
Формат/Информация : Audio Video Interleave
Размер файла : 1,45 Гбайт
Продолжительность : 1 ч. 32 м.
Общий поток : 2239 Кбит/сек
Название фильма : Безумие | Обезумевший | The Maddening [1995]
Жанр : Thriller
Программа кодирования : VirtualDubMod 1.5.10.2 (build 2540/release)
Правообладатель : 0ptimus
Примечание : DVO, AVO (Gavrilov), eng

Видео
Идентификатор : 0
Формат : MPEG-4 Visual
Профиль формата : Advanced Simple@L5
Параметр BVOP формата : 1
Параметр QPel формата : Нет
Параметр GMC формата : Без точки перехода
Параметр матрицы формата : Выборочная
Идентификатор кодека : XVID
Идентификатор кодека/Подсказка : XviD
Продолжительность : 1 ч. 32 м.
Битрейт : 1644 Кбит/сек
Ширина : 704 пикселя
Высота : 528 пикселей
Соотношение сторон : 4:3
Частота кадров : 25,000 кадров/сек
Цветовое пространство : YUV
Субдискретизация насыщенности : 4:2:0
Битовая глубина : 8 бит
Тип развёртки : Прогрессивная
Метод сжатия : С потерями
Бит/(Пиксели*Кадры) : 0.177
Размер потока : 1,06 Гбайт (73%)
Библиотека кодирования : XviD 65

Аудио #1
Идентификатор : 1
Формат : AC-3
Формат/Информация : Audio Coding 3
Расширение режима : CM (complete main)
Идентификатор кодека : 2000
Продолжительность : 1 ч. 32 м.
Вид битрейта : Постоянный
Битрейт : 192 Кбит/сек
Каналы : 2 канала
Расположение каналов : Front: L R
Частота : 48,0 КГц
Битовая глубина : 16 бит
Метод сжатия : С потерями
Размер потока : 127 Мбайт (9%)
Выравнивание : Разделение по промежуткам
Продолжительность промежутка : 40 мс. (1,00 видеокадр)
Время предзагрузки промежутка : 500 мс.

Аудио #2
Идентификатор : 2
Формат : AC-3
Формат/Информация : Audio Coding 3
Расширение режима : CM (complete main)
Идентификатор кодека : 2000
Продолжительность : 1 ч. 32 м.
Вид битрейта : Постоянный
Битрейт : 192 Кбит/сек
Каналы : 2 канала
Расположение каналов : Front: L R
Частота : 48,0 КГц
Битовая глубина : 16 бит
Метод сжатия : С потерями
Размер потока : 127 Мбайт (9%)
Выравнивание : Разделение по промежуткам
Продолжительность промежутка : 40 мс. (1,00 видеокадр)
Время предзагрузки промежутка : 500 мс.

Аудио #3
Идентификатор : 3
Формат : AC-3
Формат/Информация : Audio Coding 3
Расширение режима : CM (complete main)
Идентификатор кодека : 2000
Продолжительность : 1 ч. 32 м.
Вид битрейта : Постоянный
Битрейт : 192 Кбит/сек
Каналы : 2 канала
Расположение каналов : Front: L R
Частота : 48,0 КГц
Битовая глубина : 16 бит
Метод сжатия : С потерями
Размер потока : 127 Мбайт (9%)
Выравнивание : Разделение по промежуткам
Продолжительность промежутка : 40 мс. (1,00 видеокадр)
Время предзагрузки промежутка : 500 мс.



Скачать Обезумевший.Безумие.The.Maddening.(Дэнни.Хьюстон).[1995.триллер.DVDRip].[DVO]+[AVO].torrent без регистрации
Золото ЗОЛОТАЯ РАЗДАЧА! СКАЧАННОЕ НЕ ЗАСЧИТЫВАЕТСЯ! Золото
Дата: Зарегистрирован   [ Тип: внутренний ] Как тут cкачать?
MAGNET ссылка
MAGNET ссылка


Скачать .torrent

30 KB

Статус: проверено DHT
Скачан: торрент - 100 раз, раздача полностью - 91 раз
Размер: 1,45 GB
Оценка:  - (Голосов: 0)
Поблагодарили: 1
Поделиться ссылкой на эту раздачу с друзьями:
В контактеFacebookОдноклассникиTwitterLivejournalМой МирLiveinternet
 

 
Показать сообщения:    


Вы не можете начинать темы
Вы не можете отвечать на сообщения
Вы не можете редактировать свои сообщения
Вы не можете удалять свои сообщения
Вы не можете голосовать в опросах
Вы не можете прикреплять файлы к сообщениям
Вы можете скачивать файлы