Loading...
Error

Скачать Правила виноделов / The Cider House Rules (Лассе Халльстрём) [1999, драма, мелодрама, BDRip-AVC] [Dub]+[Оригинал]+[Sub] торрент без регистрации

 
Статистика раздачи
Размер:  1,45 GB   |    Скачан:  142 раза
Сидов:  1  [  0 KB/s  ]  
 
Автор Сообщение

Marsianka

[] 

Правила виноделов / The Cider House Rules (1999) BDRip-AVC

Информация о фильме
Название: Правила виноделов
Оригинальное название: The Cider House Rules
Год выхода: 1999
Жанр: драма, мелодрама
Режиссер: Лассе Халльстрём

В ролях: Тоби Магуайр, Шарлиз Терон, Делрой Линдо, Пол Радд, Майкл Кейн, Джейн Александр, Кэти Бейкер, Эрика Баду, Киран Калкин, Кейт Неллиган, Борис Шувалов, Ольга Голованова, Валентин Голубенко, Андрей Градов, Вадим Андреев...

О фильме: 40-е годы. Где-то далеко идет война, а в сиротском приюте Сент-Клауд, возглавляемом доктором Ларчем, решаются другие человеческие проблемы. Гомер Уэллс вырос в приюте и никогда еще не покидал его пределов. Зато преуспел в акушерстве, ассистируя доктору Ларчу.

Именно здесь Гомер знакомится с Кэнди и ее возлюбленным, уезжающим на фронт. С ними он впервые покидает Сент-Клауд, чтобы узнать другую жизнь, о которой пока только мечтал



Страна: США
Продолжительность: 02:05:17
Перевод: Дублированный, Оригинал (Английский)

Файл
Кодек: x.264
Качество: BDRip-AVC
Видео: 960x416 (2,35:1), 23,976 fps, 1339 kbps, 0.140 bit/pixel
Аудио #1: 48 kHz, AC3 Dolby Digital, 2 ch, ~192.00 kbps (Русский)
Аудио #2: 48 kHz, AC3 Dolby Digital, 2 ch, ~128.00 kbps (Английский)
Субтитры: Русские (отключаемые)
Сэмпл

&
Общее
Уникальный идентификатор : 201562312543894935624117597297889715244 (0x97A37D454F1FD3A69DC429C10363242C)
Полное имя : D:The Cider House Rules.1999.BDRip-AVC.mkv
Формат : Matroska
Версия формата : Version 4 / Version 2
Размер файла : 1,45 Гбайт
Продолжительность : 2 ч. 5 м.
Общий поток : 1660 Кбит/сек
Название фильма : Правила виноделов / The Cider House Rules (1999) BDRip-AVC rip by Rulya74
Дата кодирования : UTC 2013-09-19 07:32:36
Программа кодирования : mkvmerge v6.2.0 ('Promised Land') built on Apr 28 2013 12:22:01
Библиотека кодирования : libebml v1.3.0 + libmatroska v1.4.0

Видео
Идентификатор : 1
Формат : AVC
Формат/Информация : Advanced Video Codec
Профиль формата : High@L4.1
Параметр CABAC формата : Да
Параметр ReFrames формата : 7 кадров
Идентификатор кодека : V_MPEG4/ISO/AVC
Продолжительность : 2 ч. 5 м.
Битрейт : 1339 Кбит/сек
Ширина : 960 пикселей
Высота : 416 пикселей
Соотношение сторон : 2,35:1
Режим частоты кадров : Постоянный
Частота кадров : 23,976 кадра/сек
Цветовое пространство : YUV
Субдискретизация насыщенности : 4:2:0
Битовая глубина : 8 бит
Тип развёртки : Прогрессивная
Бит/(Пиксели*Кадры) : 0.140
Размер потока : 1,14 Гбайт (79%)
Библиотека кодирования : x264 core 133 r2334 a3ac64b
Настройки программы : cabac=1 / ref=7 / deblock=1:-2:-2 / analyse=0x3:0x113 / me=umh / subme=9 / psy=1 / psy_rd=1.04:0.02 / mixed_ref=1 / me_range=32 / chroma_me=1 / trellis=2 / 8x8dct=1 / cqm=0 / deadzone=21,11 / fast_pskip=0 / chroma_qp_offset=-3 / threads=8 / lookahead_threads=1 / sliced_threads=0 / nr=0 / decimate=1 / interlaced=0 / bluray_compat=0 / constrained_intra=0 / bframes=5 / b_pyramid=2 / b_adapt=2 / b_bias=0 / direct=3 / weightb=1 / open_gop=0 / weightp=2 / keyint=240 / keyint_min=23 / scenecut=40 / intra_refresh=0 / rc_lookahead=40 / rc=2pass / mbtree=1 / bitrate=1339 / ratetol=1.0 / qcomp=0.60 / qpmin=10 / qpmax=69 / qpstep=4 / cplxblur=20.0 / qblur=0.5 / vbv_maxrate=62500 / vbv_bufsize=78125 / nal_hrd=none / ip_ratio=1.40 / aq=2:1.00
Default : Да
Forced : Нет

Аудио #1
Идентификатор : 2
Формат : AC-3
Формат/Информация : Audio Coding 3
Расширение режима : CM (complete main)
Параметр Endianness формата : Big
Идентификатор кодека : A_AC3
Продолжительность : 2 ч. 5 м.
Вид битрейта : Постоянный
Битрейт : 192 Кбит/сек
Каналы : 2 канала
Расположение каналов : Front: L R
Частота : 48,0 КГц
Битовая глубина : 16 бит
Метод сжатия : С потерями
Размер потока : 172 Мбайт (12%)
Заголовок : Дублированный
Язык : Russian
Default : Да
Forced : Нет

Аудио #2
Идентификатор : 3
Формат : AC-3
Формат/Информация : Audio Coding 3
Расширение режима : CM (complete main)
Параметр Endianness формата : Big
Идентификатор кодека : A_AC3
Продолжительность : 2 ч. 5 м.
Вид битрейта : Постоянный
Битрейт : 128 Кбит/сек
Каналы : 2 канала
Расположение каналов : Front: L R
Частота : 48,0 КГц
Битовая глубина : 16 бит
Метод сжатия : С потерями
Размер потока : 115 Мбайт (8%)
Заголовок : Оригинал
Язык : English
Default : Нет
Forced : Нет

Текст
Идентификатор : 4
Формат : UTF-8
Идентификатор кодека : S_TEXT/UTF8
Идентификатор кодека/Информация : UTF-8 Plain Text
Язык : Russian
Default : Да
Forced : Нет

Меню
00:00:00.000 : :Chapter 01
00:10:05.605 : :Chapter 02
00:21:04.888 : :Chapter 03
00:31:10.869 : :Chapter 04
00:41:56.889 : :Chapter 05
00:52:03.537 : :Chapter 06
01:03:08.242 : :Chapter 07
01:13:34.243 : :Chapter 08
01:24:38.990 : :Chapter 09
01:34:45.596 : :Chapter 10
01:45:11.596 : :Chapter 11
01:55:37.597 : :Chapter 12
02:05:17.510 : :Chapter 13



Скачать Правила.виноделов.The.Cider.House.Rules.(Лассе.Халльстрём).[1999.драма.мелодрама.BDRip-AVC].[Dub]+[Оригинал]+[Sub].torrent без регистрации
Золото ЗОЛОТАЯ РАЗДАЧА! СКАЧАННОЕ НЕ ЗАСЧИТЫВАЕТСЯ! Золото
Дата: Зарегистрирован   [ Тип: внутренний ] Как тут cкачать?
MAGNET ссылка
MAGNET ссылка


Скачать .torrent

15 KB

Статус: проверено DHT
Скачан: торрент - 142 раз, раздача полностью - 99 раз
Размер: 1,45 GB
Оценка:  - (Голосов: 0)
Поблагодарили: 1
Поделиться ссылкой на эту раздачу с друзьями:
В контактеFacebookОдноклассникиTwitterLivejournalМой МирLiveinternet
 

 
Показать сообщения:    


Вы не можете начинать темы
Вы не можете отвечать на сообщения
Вы не можете редактировать свои сообщения
Вы не можете удалять свои сообщения
Вы не можете голосовать в опросах
Вы не можете прикреплять файлы к сообщениям
Вы можете скачивать файлы