Loading...
Error

Скачать За тех, кого мы любим / Ore wa, kimi no tame ni koso shini ni iku (Таку Шине) [2007, драма, военный, BDRip] [AVO] торрент без регистрации

 
Статистика раздачи
Размер:  2,2 GB   |    Скачан:  100 раз
Сидов:  1  [  0 KB/s  ]  
 
Автор Сообщение

Marsianka

[] 

Название: За тех, кого мы любим
Оригинальное название: Ore wa, kimi no tame ni koso shini ni iku
Год выпуска: 2007
Жанр: драма, военный
Выпущено: Япония, Toei Company
Режиссер: Таку Шине
В ролях: Тору Эмори, Кацутака Фурухата, Клеве Грэй, Ичиро Хашимото, Масато Ибу, Рэндзи Исибаси, Хироши Кацуно, Нобору Кимура, Кейко Киши, Есуке Кубодзука, Ясуюки Маекава, Юри Мияшита, Сатору Мацуо, Норико Накагоши, Томоя Накамура, Харуку Рен, Микако Табе, Минори Терада, Кеничи Эндо

О фильме: Этот фильм рассказывает о тех людях, кому начальством и судьбой был приготовлен билет в один конец, о том, как жили они, чем дышали, как любили, как их готовили и как умирали в самоубийственных атаках во славу императора.



Качество: BDRip
Видео: XviD, 1922 Kбит/с, 720x400
Аудио: Русский, японсий (AC3, 2 ch, 192 Кбит/с)
Размер: 2.19 ГБ
Продолжительность: 02:15:34
Перевод: Авторский (Сергей Кузнецов)
Общее
Полное имя : E:VideoZa.teh,kogo.my.ljubim.2007.XviD.BDRipZa.teh,kogo.my.ljubim.2007.Original.jpn.ac3
Формат : AC-3
Формат/Информация : Audio Coding 3
Размер файла : 186 Мбайт
Продолжительность : 2 ч. 15 м.
Режим общего битрейта : Постоянный
Общий поток : 192 Кбит/сек

Аудио
Формат : AC-3
Формат/Информация : Audio Coding 3
Расширение режима : CM (complete main)
Параметр Endianness формата : Big
Продолжительность : 2 ч. 15 м.
Вид битрейта : Постоянный
Битрейт : 192 Кбит/сек
Каналы : 2 канала
Расположение каналов : Front: L R
Частота : 48,0 КГц
Битовая глубина : 16 бит
Метод сжатия : С потерями
Размер потока : 186 Мбайт (100%)

Общее
Полное имя : E:VideoZa.teh,kogo.my.ljubim.2007.XviD.BDRipZa.teh,kogo.my.ljubim.2007.XviD.BDRip.avi
Формат : AVI
Формат/Информация : Audio Video Interleave
Профиль формата : OpenDML
Размер файла : 2,01 Гбайт
Продолжительность : 2 ч. 15 м.
Общий поток : 2127 Кбит/сек
Программа кодирования : VirtualDubMod 1.5.10.2 (build 2540/release)
Библиотека кодирования : VirtualDubMod build 2540/release

Видео
Идентификатор : 0
Формат : MPEG-4 Visual
Профиль формата : Advanced Simple@L5
Параметр BVOP формата : 1
Параметр QPel формата : Нет
Параметр GMC формата : Без точки перехода
Параметр матрицы формата : Default (H.263)
Режим смешивания : Сжатый битовый поток
Идентификатор кодека : XVID
Идентификатор кодека/Подсказка : XviD
Продолжительность : 2 ч. 15 м.
Битрейт : 1922 Кбит/сек
Ширина : 720 пикселей
Высота : 400 пикселей
Соотношение сторон : 16:9
Частота кадров : 23,976 кадра/сек
Цветовое пространство : YUV
Субдискретизация насыщенности : 4:2:0
Битовая глубина : 8 бит
Тип развёртки : Прогрессивная
Метод сжатия : С потерями
Бит/(Пиксели*Кадры) : 0.278
Размер потока : 1,82 Гбайт (90%)
Библиотека кодирования : XviD 1.2.1 (UTC 2008-12-04)

Аудио
Идентификатор : 1
Формат : AC-3
Формат/Информация : Audio Coding 3
Расширение режима : CM (complete main)
Параметр Endianness формата : Big
Идентификатор кодека : 2000
Продолжительность : 2 ч. 15 м.
Вид битрейта : Постоянный
Битрейт : 192 Кбит/сек
Каналы : 2 канала
Расположение каналов : Front: L R
Частота : 48,0 КГц
Битовая глубина : 16 бит
Метод сжатия : С потерями
Размер потока : 186 Мбайт (9%)
Выравнивание : Разделение по промежуткам
Продолжительность промежутка : 42 мс. (1,00 видеокадр)
Время предзагрузки промежутка : 500 мс.



Скачать За.тех.кого.мы.любим.Ore.wa.kimi.no.tame.ni.koso.shini.ni.iku.(Таку.Шине).[2007.драма.военный.BDRip].[AVO].torrent без регистрации
Золото ЗОЛОТАЯ РАЗДАЧА! СКАЧАННОЕ НЕ ЗАСЧИТЫВАЕТСЯ! Золото
Дата: Зарегистрирован   [ Тип: внутренний ] Как тут cкачать?
MAGNET ссылка
MAGNET ссылка


Скачать .torrent

12 KB

Статус: проверено DHT
Скачан: торрент - 100 раз, раздача полностью - 15 раз
Размер: 2,2 GB
Оценка:  - (Голосов: 0)
Поблагодарили: 0
Поделиться ссылкой на эту раздачу с друзьями:
В контактеFacebookОдноклассникиTwitterLivejournalМой МирLiveinternet
 

 
Показать сообщения:    


Вы не можете начинать темы
Вы не можете отвечать на сообщения
Вы не можете редактировать свои сообщения
Вы не можете удалять свои сообщения
Вы не можете голосовать в опросах
Вы не можете прикреплять файлы к сообщениям
Вы можете скачивать файлы