Loading...
Error

Скачать Резня в психушке / Doom Asylum (Ричард Фридман) [1987 г., ужасы, комедия, DVDRip] [VO] (Хэм) торрент без регистрации

 
Статистика раздачи
Размер:  746 MB   |    Скачан:  109 раз
Сидов:  1  [  0 KB/s  ]  
 
Автор Сообщение

durik

[] 

Резня в психушке / Doom Asylum

Название: Резня в психушке
Оригинальное название: Doom Asylum
Год выхода: 1987
Жанр: ужасы, комедия
Режиссер: Ричард Фридман
В ролях: Пэтти Маллен, Рут Коллинз, Кристин Дэвис, Уильям Хэй, Кенни Л. Прайс, Харрисон Уайт, Даун Элван, Фарин, Майкл Роджен, Харви Кит

О фильме:Разухабистый мужик средних лет с молодой безбашенной подругой попадает в автокатастрофу, в результате которой его пассия умирает, а сам он оказывается на «разделочном столе» морга, где его уже начинают вскрывать. Неожиданно для вскрывающих его врачей мужик оживает, и, обезумев от горя и страданий, оперативно «мочит» их скальпелем.



Страна: США
Студия: Студия-изготовитель, если известна
Продолжительность: 01:18:45
Перевод: Любительский одноголосый закадровый [Хэм]

Кодек: XviD
Качество: DVDRip
Видео: 624x352, 1075 kbps, 23,976 fps, 0,204 Bits/(Pixel*Frame)
Звук:
MP3, 48 kHz, 128 kbps VBR, 2 ch - русский
MP3, 48 kHz, 128 kbps VBR, 2 ch - english
Субтитры: Нет

Релиз от:

Автор рипа: Bathory
General
Complete name : G:Doom.Asylum.1987.DVDRip.avi
Format : AVI
Format/Info : Audio Video Interleave
File size : 746 MiB
Duration : 1h 18mn
Overall bit rate mode : Variable
Overall bit rate : 1 325 Kbps

Video
ID : 0
Format : MPEG-4 Visual
Format profile : Advanced Simple@L5
Format settings, BVOP : 2
Format settings, QPel : No
Format settings, GMC : No warppoints
Format settings, Matrix : Default (H.263)
Codec ID : XVID
Codec ID/Hint : XviD
Duration : 1h 18mn
Bit rate : 1 075 Kbps
Width : 624 pixels
Height : 352 pixels
Display aspect ratio : 16:9
Frame rate : 23.976 fps
Color space : YUV
Chroma subsampling : 4:2:0
Bit depth : 8 bits
Scan type : Progressive
Compression mode : Lossy
Bits/(Pixel*Frame) : 0.204
Stream size : 605 MiB (81%)
Writing library : XviD 1.2.1 (UTC 2008-12-04)

Audio #1
ID : 1
Format : MPEG Audio
Format version : Version 1
Format profile : Layer 3
Mode : Joint stereo
Mode extension : MS Stereo
Codec ID : 55
Codec ID/Hint : MP3
Duration : 1h 18mn
Bit rate mode : Variable
Bit rate : 117 Kbps
Nominal bit rate : 128 Kbps
Channel count : 2 channels
Sampling rate : 48.0 KHz
Compression mode : Lossy
Stream size : 66.1 MiB (9%)
Alignment : Aligned on interleaves
Interleave, duration : 24 ms (0.58 video frame)
Interleave, preload duration : 117 ms
Title : VTS_04_1 T80 2_0ch 192Kbps DELAY 0ms
Writing library : LAME3.99r
Encoding settings : -m j -V 4 -q 2 -lowpass 17 --abr 128

Audio #2
ID : 2
Format : MPEG Audio
Format version : Version 1
Format profile : Layer 3
Mode : Joint stereo
Codec ID : 55
Codec ID/Hint : MP3
Duration : 1h 18mn
Bit rate mode : Variable
Bit rate : 112 Kbps
Nominal bit rate : 128 Kbps
Channel count : 2 channels
Sampling rate : 48.0 KHz
Compression mode : Lossy
Stream size : 63.0 MiB (8%)
Alignment : Aligned on interleaves
Interleave, duration : 24 ms (0.58 video frame)
Interleave, preload duration : 195 ms
Title : VTS_04_1 T81 2_0ch 192Kbps DELAY 0ms
Writing library : LAME3.99r
Encoding settings : -m j -V 4 -q 2 -lowpass 17 --abr 128



Скачать Резня.в.психушке.Doom.Asylum.(Ричард.Фридман).[1987.г.ужасы.комедия.DVDRip].[VO].(Хэм).torrent без регистрации
Золото ЗОЛОТАЯ РАЗДАЧА! СКАЧАННОЕ НЕ ЗАСЧИТЫВАЕТСЯ! Золото
Дата: Зарегистрирован   [ Тип: внутренний ] Как тут cкачать?
MAGNET ссылка
MAGNET ссылка


Скачать .torrent

15 KB

Статус: проверено DHT
Скачан: торрент - 109 раз, раздача полностью - 103 раз
Размер: 746 MB
Оценка:  5 (Голосов: 1)
Поблагодарили: 5
Поделиться ссылкой на эту раздачу с друзьями:
В контактеFacebookОдноклассникиTwitterLivejournalМой МирLiveinternet
 

 
Показать сообщения:    


Вы не можете начинать темы
Вы не можете отвечать на сообщения
Вы не можете редактировать свои сообщения
Вы не можете удалять свои сообщения
Вы не можете голосовать в опросах
Вы не можете прикреплять файлы к сообщениям
Вы можете скачивать файлы