Loading...
Error

Скачать Дракула: Мертвый и довольный / Dracula Dead and Loving It (Мел Брукс) [1995, комедия, триллер, DVDRip] [AVO] (П.Санаев) + [DVO] (Ren-TV) торрент без регистрации

 
Статистика раздачи
Размер:  1,43 GB   |    Скачан:  173 раза
Сидов:  1  [  0 KB/s  ]  
 
Автор Сообщение

leon030982

[] 

Дракула: Мертвый и довольный / Dracula Dead and Loving It




Год выпуска: 1995
Страна: США
Жанр: Комедия, триллер
Продолжительность: 01:29:43
Перевод#1: Авторский (одноголосный, закадровый)[П.Санаев]
Перевод#2: Профессиональный (двухголосый закадровый) [Ren-TV]
Роли озвучивали: Игорь Тарадайкин и Ирина Савина

Режиссер: Мел Брукс

В ролях: Лесли Нильсен, Питер МакНикол, Стивен Уэбер, Эми Ясбек, Мел Брукс, Лизетт Энтони, Харви Кормен, Марк Блэнкфилд, Миган Кавана, Грегг Бинкли, Клайв Ревилл

Описание: Сюжет пародирует сюжет романа «Дракула» Брэма Стокера. Заключенный в своем уединенном замке в Трансильвании, окруженный компанией летучих мышей, граф Дракула чувствует необходимость покинуть родные места, в которых свежая кровь становится слишком редким праздником. Для любителей интриг нельзя придумать лучших "охотничьих угодий", чем викторианская Англия, населенная страстными женщинами, ценящими любовь и только и жаждущими, чтобы их соблазнили. Классический сюжет, если бы не одно "но". Графа Дракулу играет знаменитый комедийный актер Лесли Нильсен. Смесь ужаса и смеха в фильме Мэла Брукса открывает правду об известнейшем персонаже - графе Дракуле, патетическом неудачнике и великом сексуальном интригане.



Качество видео: DVDRip
Видео кодек: XviD
Аудио кодек: AC3
Формат видео: AVI
Видео: 720x400 (1.80:1), 23.976 fps, XviD build 50 ~1875 kbps avg, 0.27 bit/pixel
Аудио №1: 48 kHz, AC3 Dolby Digital, 2/0 (L,R) ch, ~192.00 kbps avg[AVO]
Аудио №2: 48 kHz, AC3 Dolby Digital, 2/0 (L,R) ch, ~192.00 kbps avg[MVO]

: В исходнике релиз от smit009.Благодарности SelinaAnt за оцифровку дорожки Ren-TV . Работа со звуком спасибо --- alex7691.Авторская озвучка П.Санаева взята из раздачи MaLLIeHbKa,за что ее и благодарим!
General
Complete name : E:\INTERNET\Dracula Dead and Loving It.1995.DVDRip.AVO[Sanaev]+MVO[Ren-TV].avi
Format : AVI
Format/Info : Audio Video Interleave
File size : 1.43 GiB
Duration : 1h 29mn
Overall bit rate : 2 274 Kbps
Writing application : VirtualDubMod 1.5.10.3 (build 2550/release)
Writing library : VirtualDubMod build 2550/release

Video
ID : 0
Format : MPEG-4 Visual
Format profile : Advanced Simple@L5
Format settings, BVOP : Yes
Format settings, QPel : No
Format settings, GMC : No warppoints
Format settings, Matrix : Default (MPEG)
Codec ID : XVID
Codec ID/Hint : XviD
Duration : 1h 29mn
Bit rate : 1 876 Kbps
Width : 720 pixels
Height : 400 pixels
Display aspect ratio : 16:9
Frame rate : 23.976 fps
Color space : YUV
Chroma subsampling : 4:2:0
Bit depth : 8 bits
Scan type : Progressive
Bits/(Pixel*Frame) : 0.272
Stream size : 1.18 GiB (83%)
Writing library : XviD 1.2.1 (UTC 2008-12-04)

Audio #1
ID : 1
Format : AC-3
Format/Info : Audio Coding 3
Mode extension : CM (complete main)
Codec ID : 2000
Duration : 1h 29mn
Bit rate mode : Constant
Bit rate : 192 Kbps
Channel(s) : 2 channels
Channel positions : Front: L R
Sampling rate : 48.0 KHz
Bit depth : 16 bits
Stream size : 123 MiB (8%)
Alignment : Split accross interleaves
Interleave, duration : 42 ms (1.00 video frame)
Interleave, preload duration : 500 ms

Audio #2
ID : 2
Format : AC-3
Format/Info : Audio Coding 3
Mode extension : CM (complete main)
Codec ID : 2000
Duration : 1h 29mn
Bit rate mode : Constant
Bit rate : 192 Kbps
Channel(s) : 2 channels
Channel positions : Front: L R
Sampling rate : 48.0 KHz
Bit depth : 16 bits
Stream size : 123 MiB (8%)
Alignment : Split accross interleaves
Interleave, duration : 42 ms (1.00 video frame)
Interleave, preload duration : 500 ms



Скачать Дракула.Мертвый.и.довольный.Dracula.Dead.and.Loving.It.(Мел.Брукс).[1995.комедия.триллер.DVDRip].[AVO].(П.Санаев).+.[DVO].(Ren-TV).torrent без регистрации
Золото ЗОЛОТАЯ РАЗДАЧА! СКАЧАННОЕ НЕ ЗАСЧИТЫВАЕТСЯ! Золото
Дата: Зарегистрирован   [ Тип: внутренний ] Как тут cкачать?
MAGNET ссылка
MAGNET ссылка


Скачать .torrent

15 KB

Статус: проверено DHT
Скачан: торрент - 173 раз, раздача полностью - 39 раз
Размер: 1,43 GB
Оценка:  5 (Голосов: 2)
Поблагодарили: 0
Поделиться ссылкой на эту раздачу с друзьями:
В контактеFacebookОдноклассникиTwitterLivejournalМой МирLiveinternet
 

 
Показать сообщения:    


Вы не можете начинать темы
Вы не можете отвечать на сообщения
Вы не можете редактировать свои сообщения
Вы не можете удалять свои сообщения
Вы не можете голосовать в опросах
Вы не можете прикреплять файлы к сообщениям
Вы можете скачивать файлы