Loading...
Error

Скачать Сюрприз старины Неда / Waking Ned (Кирк Джонс / Kirk Jones) [1998, Комедия, WEB-DLRip] [MVO] торрент без регистрации

 
Статистика раздачи
Размер:  1,46 GB   |    Скачан:  126 раз
Сидов:  1  [  0 KB/s  ]  
 
Автор Сообщение

leon030982

[] 

Сюрприз старины Неда / Waking Ned


Год выпуска: 1998
Страна: Великобритания, Ирландия, Франция, США
Жанр: Комедия
Продолжительность: 01:31:21
Перевод: Профессиональный (многоголосый закадровый)
Cубтитры: нет

Режиссер: Кирк Джонс / Kirk Jones

В ролях: Иэн Бэннен, Дэвид Келли, Фионнула Флэнаган, Сьюзэн Линч, Джеймс Несбитт, Пол Вон, Адриан Робинсон, Мойра О’Мэлли, Роберт Хикки, Пэдди Уорд

Описание: Джеки О’Ши, житель маленькой ирландской деревушки, узнает, что один из его соседей выиграл в лотерею 7 миллионов фунтов. Счастливчиком оказался Нед Девайн. К сожалению, получить выигрыш будет довольно затруднительно — от радости Нед умер. Джеки и его лучший друг Майкл очень хотят, чтобы Нед поделился с ними своим богатством, во всяком случае, живой Нед поступил бы именно так. Но все оказывается гораздо сложнее, чем могли себе представить два приятеля. Чтобы убедить представителя лотерейной комиссии в том, что Нед Девайн жив, им придется вовлечь в свой план всю деревню…



Тип релиза: WEB-DLRip [исх. WEB-DL 1080p]
Формат видео: AVI
Видео кодек: XviD
Аудио кодек: AC3
Видео: 704x288 (2.44:1), 23.976 fps, XviD build 50, 2082 kbps avg, 0.43 bit/pixel
Аудио: 48 kHz, AC3 Dolby Digital, 2/0 (L,R) ch, 192.00 kbps avg [Russian_MVO]
За синхронизацию русской звуковой дорожки огромное спасибо Нордер!!!
Вполне милая и тонкая комедия на достаточно скользкую тему.

На каком-то этапе возникают вопросы, напомнившие «Простой план»: жульничество, мошенничество, подлог — это ведь тоже преступление? принесут ли кому-нибудь ожидаемое счастье чужие деньги? Но это другая история, и рассказывается она совсем иначе. Где-то, может быть, сыроватая, не на высший балл сделанная. Но зато по-доброму забавная, искренняя и свежая.

Изумрудные просторы ирландского островка, вечный шум морской лазури, протяжные ирландские мелодии — неповторимый колорит этого фильма.

Стариканы очень позитивные!
General
Complete name : E:\Wakin Ned_WEB-DLRip.avi
Format : AVI
Format/Info : Audio Video Interleave
File size : 1.46 GiB
Duration : 1h 31mn
Overall bit rate : 2 284 Kbps
Writing application : VirtualDubMod 1.5.10.3
Writing library : VirtualDubMod build 2550/release

Video
ID : 0
Format : MPEG-4 Visual
Format profile : Advanced Simple@L5
Format settings, BVOP : Yes
Format settings, QPel : No
Format settings, GMC : No warppoints
Format settings, Matrix : Custom
Codec ID : XVID
Codec ID/Hint : XviD
Duration : 1h 31mn
Bit rate : 2 083 Kbps
Width : 704 pixels
Height : 288 pixels
Display aspect ratio : 2.40:1
Frame rate : 23.976 fps
Color space : YUV
Chroma subsampling : 4:2:0
Bit depth : 8 bits
Scan type : Progressive
Compression mode : Lossy
Bits/(Pixel*Frame) : 0.428
Stream size : 1.33 GiB (91%)
Writing library : XviD 1.2.1 (UTC 2008-12-04)

Audio
ID : 1
Format : AC-3
Format/Info : Audio Coding 3
Mode extension : CM (complete main)
Codec ID : 2000
Duration : 1h 31mn
Bit rate mode : Constant
Bit rate : 192 Kbps
Channel(s) : 2 channels
Channel positions : Front: L R
Sampling rate : 48.0 KHz
Bit depth : 16 bits
Compression mode : Lossy
Stream size : 125 MiB (8%)
Alignment : Split accross interleaves
Interleave, duration : 42 ms (1.00 video frame)
Interleave, preload duration : 500 ms



Скачать Сюрприз.старины.Неда.Waking.Ned.(Кирк.Джонс.Kirk.Jones).[1998.Комедия.WEB-DLRip].[MVO].torrent без регистрации
Золото ЗОЛОТАЯ РАЗДАЧА! СКАЧАННОЕ НЕ ЗАСЧИТЫВАЕТСЯ! Золото
Дата: Зарегистрирован   [ Тип: внутренний ] Как тут cкачать?
MAGNET ссылка
MAGNET ссылка


Скачать .torrent

15 KB

Статус: проверено DHT
Скачан: торрент - 126 раз, раздача полностью - 33 раз
Размер: 1,46 GB
Оценка:  - (Голосов: 0)
Поблагодарили: 1
Поделиться ссылкой на эту раздачу с друзьями:
В контактеFacebookОдноклассникиTwitterLivejournalМой МирLiveinternet
 

 
Показать сообщения:    


Вы не можете начинать темы
Вы не можете отвечать на сообщения
Вы не можете редактировать свои сообщения
Вы не можете удалять свои сообщения
Вы не можете голосовать в опросах
Вы не можете прикреплять файлы к сообщениям
Вы можете скачивать файлы