Loading...
Error

Скачать Донни Браско / Donnie Brasco (Майк Ньюэлл / Mike Newell) [1997 г., триллер, драма, криминал, биография, BDRip] [Расширенная версия / Extended Cut] [AVO] (Андрей Гаврилов) торрент без регистрации

 
Статистика раздачи
Размер:  2,12 GB   |    Скачан:  114 раз
Сидов:  1  [  0 KB/s  ]  
 
Автор Сообщение

leon030982

[] 

Донни Браско / Donnie Brasco (Расширенная версия / Extended Cut)




Год выпуска: 1997
Страна: США
Жанр: Триллер, драма, криминал, биография
Продолжительность: 02:27:07
Перевод: Авторский (одноголосый)[Андрей Гаврилов]
Субтитры: нет

Режиссер: Майк Ньюэлл / Mike Newell

В ролях: Аль Пачино, Джонни Депп, Майкл Мэдсен, Бруно Кирби, Джеймс Руссо, Энн Хеч, Желько Иванек, Джерри Бекер, Роберт Миано, Brian Tarantina, Рокко Систо, Зэк Гренье, Уолт Макферсон, Ronnie Farer, Терри Серпико, Гретчен Мол, Тони Лип, Джордж Анджелика, Вэл Эйвери, Мэдисон Арнольд

Описание: Нью — Йорк, 1978 год. Агент ФБР Джо Пистоне получает новое задание: внедриться в одну из преступных группировок Бруклина с целью получения полноценной информации о деятельности гангстерских банд. Он должен забыть свое настоящее имя, порвать со всеми друзьями и родными, так как теперь он — Донни Браско. Его лучшим другом становится стареющий мафиози, нуждающийся в молодом напарнике. Он верит в Донни и поручает ему самые ответственные дела. Чувствуя свою безнаказанность, Донни понимает: как ни затянула его новая жизнь, дающая практически неограниченную свободу, вернуться обратно еще не поздно. Нужно лишь сделать решающий шаг и предать того, кто стал для него настоящим другом…



Качество: BDRip
Формат: AVI
Видео кодек: XviD
Аудио кодек: AC3
Видео: 720x304 (2.37:1), 23.976 fps, XviD build 50 ~1605 kbps avg, 0.31 bit/pixel
Аудио: 48 kHz, AC3 Dolby Digital, 3/2 (L,C,R,l,r) + LFE ch, ~448 kbps

Звуковая дорожка с переводом Гаврилова сделана с чистого голоса.
Перевод фильма "Донни Браско" у Гаврилова состоялся благодаря пользователям сайта "piratca":
1. Джосс
2. dunhill200
3. lexal2002
4. Chistobaev
5. therox
6. Dimec89
7. эвоки
8. audiolubitel
9. Dr. Destructo
10. Pain_70
11. ElenaS76
12. jorn.vv
13. creath
14. walera329
15. Kampfer161
16. xcoma
17. pestel
18. Vimann
19. Anatoliy555
20. LEMKE
21. feldeger
22. Letyoha3
23. SavineX
24. Perusta
25. Wolf_Larsen
26. Роналдо1976()
27. Инкогнито!!!
28. anton966
29. gemini
30. LAVR
31. Linnan
32. Consul
33. nikson50
__________
Volfgang77 - помощь проекту в размере 200 р.
ZeDOK - помощь проекту 230 р.
elenkusto - помощь проекту 250 р.
Consul - помощь проекту 250 р.
shitman82 - помощь проекту 200 р.
Формат : AVI
Формат/Информация : Audio Video Interleave
Профиль формата : OpenDML
Размер файла : 2,12 Гбайт
Продолжительность : 2 ч. 27 м.
Общий поток : 2061 Кбит/сек
Программа кодирования : VirtualDubMod 1.5.10.3 | www.virtualdub-fr.org || (build 2550/release)
Библиотека кодирования : VirtualDubMod build 2550/release
Видео
Идентификатор : 0
Формат : MPEG-4 Visual
Профиль формата : Advanced Simple@L5
Параметр BVOP формата : 1
Параметр QPel формата : Нет
Параметр GMC формата : Без точки перехода
Параметр матрицы формата : Выборочная
Идентификатор кодека : XVID
Идентификатор кодека/Подсказка : XviD
Продолжительность : 2 ч. 27 м.
Битрейт : 1601 Кбит/сек
Ширина : 720 пикселей
Высота : 304 пикселя
Соотношение сторон : 2,35:1
Частота кадров : 23,976 кадра/сек
Цветовое пространство : YUV
Субдискретизация насыщенности : 4:2:0
Битовая глубина : 8 бит
Тип развёртки : Прогрессивная
Метод сжатия : С потерями
Бит/(Пиксели*Кадры) : 0.305
Размер потока : 1,64 Гбайт (78%)
Библиотека кодирования : XviD 1.2.1 (UTC 2008-12-04)
Аудио
Идентификатор : 1
Формат : AC-3
Формат/Информация : Audio Coding 3
Расширение режима : CM (complete main)
Параметр Endianness формата : Big
Идентификатор кодека : 2000
Продолжительность : 2 ч. 27 м.
Вид битрейта : Постоянный
Битрейт : 448 Кбит/сек
Каналы : 6 каналов
Расположение каналов : Front: L C R, Side: L R, LFE
Частота : 48,0 КГц
Битовая глубина : 16 бит
Метод сжатия : С потерями
Размер потока : 471 Мбайт (22%)
Выравнивание : Разделение по промежуткам
Продолжительность промежутка : 42 мс. (1,00 видеокадр)
Время предзагрузки промежутка : 500 мс.



Скачать Донни.Браско.Donnie.Brasco.(Майк.Ньюэлл.Mike.Newell).[1997.г.триллер.драма.криминал.биография.BDRip].[Расширенная.версия.Extended.Cut].[AVO].(Андрей.Гаврилов).torrent без регистрации
Золото ЗОЛОТАЯ РАЗДАЧА! СКАЧАННОЕ НЕ ЗАСЧИТЫВАЕТСЯ! Золото
Дата: Зарегистрирован   [ Тип: внутренний ] Как тут cкачать?
MAGNET ссылка
MAGNET ссылка


Скачать .torrent

11 KB

Статус: проверено DHT
Скачан: торрент - 114 раз, раздача полностью - 39 раз
Размер: 2,12 GB
Оценка:  5 (Голосов: 2)
Поблагодарили: 1
Поделиться ссылкой на эту раздачу с друзьями:
В контактеFacebookОдноклассникиTwitterLivejournalМой МирLiveinternet
 

 
Показать сообщения:    


Вы не можете начинать темы
Вы не можете отвечать на сообщения
Вы не можете редактировать свои сообщения
Вы не можете удалять свои сообщения
Вы не можете голосовать в опросах
Вы не можете прикреплять файлы к сообщениям
Вы можете скачивать файлы