Loading...
Error

Скачать Клиент / The Client (Джоэл Шумахер) [1994 г., Триллер, детектив, DVDRip] [AVO] (А.Гаврилов) торрент без регистрации

 
Статистика раздачи
Размер:  2 GB   |    Скачан:  107 раз

Полного источника не было: 3 года 2 месяца

 
Автор Сообщение

leon030982

[] 

Клиент / The Client


Год выпуска: 1994
Страна: США
Жанр: Триллер, детектив
Продолжительность: 01:55:53
Перевод: Авторский (одноголосый)[Андрей Гаврилов]

Режиссер: Джоэл Шумахер

В ролях: Сьюзан Сарандон /Susan Sarandon/, Томми Ли Джоунс /Tommy Lee Jones/, Мэри-Луиз Паркер /Mary-Louise Parker/, Энтони Ла Палья /Anthony La Paglia/, Дж. Т. Уолш /J. T. Walsh/, Энтони Эдвардс /Anthony Edwards/, Оззи Дэвис /Ossie Davis/, Брэд Ренфро /Brad Renfro/, Уилл Пэттон /Will Patton/, Брэдли Уитфорд /Bradley Whitford/, Энтони Хилд /Anthony Heald/, Ким Коутс /Kim Coates/, Уильям Х. Мэйси /William H. Macy
Описание: Триллер поставлен по бестселлеру Джона Гришэма ("Фирма", "Дело о пеликанах"), что уже говорит о качестве сюжета. Марк, парнишка из неблагополучной семьи, оказался свидетелем самоубийства адвоката мафии. Перед смертью адвокат сказал мальчику, где спрятан труп сенатора, убитого мафией. Мальчик тем самым становится нежелательным свидетелем, и мафия пытается его убить. Одновременно агенты ФБР, ведомые энергичным окружным прокурором (Джонс) требуют, чтобы ребенок дал показания. Надо сказать, что пацан оказался смышленый и боевой - он нанимает себе адвоката Реджи Лав (Сэрэндон), которая не только защищает его права, но и помогает ему остаться в живых. (c) Иванов М.



Качество: DVDRip
Формат: AVI
Видео кодек: XviD
Аудио кодек: MP3
Видео: 720x320 (2.25:1), 25 fps, XviD build 46 ~2079 kbps avg, 0.36 bit/pixel
Аудио №1: 44.100 kHz, MPEG Layer 3, 2 ch, ~192.00 kbps avg[AVO]
Аудио №2: 48 kHz, MPEG Layer 3, 2 ch, ~192.00 kbps avg[ENG]
1995 - ОСКАР
Номинирован в категориях:
1 - Лучшая актриса
Сьюзан Сарандон /Susan Sarandon/
General
Complete name : E:\INTERNET\The Client.avi
Format : AVI
Format/Info : Audio Video Interleave
Format profile : OpenDML
File size : 2.00 GiB
Duration : 1h 55mn
Overall bit rate : 2 471 Kbps
Writing application : VirtualDubMod 1.5.10.1 (build 2366/release)
Writing library : VirtualDubMod build 2366/release

Video
ID : 0
Format : MPEG-4 Visual
Format profile : Advanced Simple@L5
Format settings, BVOP : No
Format settings, QPel : No
Format settings, GMC : No warppoints
Format settings, Matrix : Custom
Codec ID : XVID
Codec ID/Hint : XviD
Duration : 1h 55mn
Bit rate : 2 067 Kbps
Width : 720 pixels
Height : 320 pixels
Display aspect ratio : 2.25:1
Frame rate : 25.000 fps
Color space : YUV
Chroma subsampling : 4:2:0
Bit depth : 8 bits
Scan type : Progressive
Bits/(Pixel*Frame) : 0.359
Stream size : 1.67 GiB (84%)
Writing library : XviD 1.1.2 (UTC 2006-11-01)

Audio #1
ID : 1
Format : MPEG Audio
Format version : Version 1
Format profile : Layer 3
Codec ID : 55
Codec ID/Hint : MP3
Duration : 1h 55mn
Bit rate mode : Constant
Bit rate : 192 Kbps
Channel(s) : 2 channels
Sampling rate : 44.1 KHz
Stream size : 159 MiB (8%)
Alignment : Split accross interleaves
Interleave, duration : 40 ms (1.00 video frame)
Interleave, preload duration : 500 ms
Language : Russian

Audio #2
ID : 2
Format : MPEG Audio
Format version : Version 1
Format profile : Layer 3
Mode : Joint stereo
Mode extension : MS Stereo
Codec ID : 55
Codec ID/Hint : MP3
Duration : 1h 55mn
Bit rate mode : Constant
Bit rate : 192 Kbps
Channel(s) : 2 channels
Sampling rate : 48.0 KHz
Stream size : 159 MiB (8%)
Alignment : Aligned on interleaves
Interleave, duration : 40 ms (1.00 video frame)
Interleave, preload duration : 504 ms
Writing library : LAME3.97
Encoding settings : -m j -V 4 -q 2 -lowpass 18.6 -b 192
Language : English

 



Скачать Клиент.The.Client.(Джоэл.Шумахер).[1994.г.Триллер.детектив.DVDRip].[AVO].(А.Гаврилов).torrent без регистрации
Золото ЗОЛОТАЯ РАЗДАЧА! СКАЧАННОЕ НЕ ЗАСЧИТЫВАЕТСЯ! Золото
Дата: Зарегистрирован   [ Тип: внутренний ] Как тут cкачать?
MAGNET ссылка
MAGNET ссылка


Скачать .torrent

20 KB

Статус: проверено
Скачан: торрент - 107 раз, раздача полностью - 0 раз
Размер: 2 GB
Оценка:  5 (Голосов: 1)
Поблагодарили: 2
Поделиться ссылкой на эту раздачу с друзьями:
В контактеFacebookОдноклассникиTwitterLivejournalМой МирLiveinternet
 

 
Показать сообщения:    


Вы не можете начинать темы
Вы не можете отвечать на сообщения
Вы не можете редактировать свои сообщения
Вы не можете удалять свои сообщения
Вы не можете голосовать в опросах
Вы не можете прикреплять файлы к сообщениям
Вы можете скачивать файлы