Loading...
Error

Скачать Всегда говори «ДА» / Yes Man (Пейтон Рид / Peyton Reed) [2008, Комедия, BDRip] [MVO] + Subs (Rus) торрент без регистрации

 
Статистика раздачи
Размер:  1,46 GB   |    Скачан:  254 раза
Сидов:  1  [  0 KB/s  ]  
 
Автор Сообщение

leon030982

[] 

Всегда говори «ДА» / Yes Man
«Одно слово может изменить твою жизнь»


Год выпуска: 2008
Страна: США, Австралия
Жанр: комедия
Продолжительность: 01:44:23
Перевод: Профессиональный (многоголосный)
Cубтитры: Русские (только на корейскую речь и песню)
Режиссер: Пейтон Рид / Peyton Reed
В ролях: Джим Керри (Carl), Зои Дешанель (Allison), Брэдли Купер (Peter), Джон Майкл Хиггинс (Nick), Риз Дэрби (Norman), Дэнни Мастерсон (Rooney), Фионнула Флэнаган (Tillie), Теренс Стэмп (Terrence), Саша Александр (Lucy), Молли Симс (Stephanie), Брент Бриско (Homeless Guy), Роки Кэрролл (Wes), Джон Котрэн мл. (Tweed), Спенсер Гаррет (Multack)
Описание: Депрессивный главный герой всегда и всем говорил «нет» — например, друзьям, если они зовут куда-то. Но в один прекрасный день он заключает соглашение, по которому всегда должен отвечать «Да» на любое предложение…


Качество: BDRip [Исх. BDRemux]
Формат: AVI
Видео кодек: XviD
Аудио кодек: AC3
Видео: 720x304 (2.37:1), 23.976 fps, XviD build 73 ~1605 kbps avg, 0.31 bit/pixel
Аудио: 48 kHz, AC3 Dolby Digital, 3/2 (L,C,R,l,r) + LFE ch, ~384.00 kbps avg (RUS)

Так как я сам терпеть не могу дубляж, потому что считаю, что для получения полного удовольствия от фильма просто необходимо слышать оригинальные голоса актеров, не только видеть но и слышать их игру, и уж тем более Джима Керри, искал этот фильм с закадровым.
Но безуспешно.
Поэтому сделал его сам из оригинальной дорожки и дубляжа.
(Кому интересны подробности: Разобрал дорожки, смикшировал центральные каналы, собрал)
Получилось вполне нормально. Есть еле заметное эхо и пара щелчков за весь фильм.Сам смотрел фильм с удовольствием.
Делал в первую очередь для себя, но решил выложить для таких же любителей закадрового перевода.


--автор собранной дорожки Infestead---
General
Complete name : E:\INTERNET\Vsegda govori DA.2008\Yes_Man.2008.BDRip.[MVO] + Rus SUB.km.avi
Format : AVI
Format/Info : Audio Video Interleave
File size : 1.46 GiB
Duration : 1h 44mn
Overall bit rate : 1 999 Kbps
Writing application : VirtualDubMod 1.5.10.3 (build 2550/release)
Writing library : VirtualDubMod build 2550/release

Video
ID : 0
Format : MPEG-4 Visual
Format profile : Advanced Simple@L5
Format settings, BVOP : Yes
Format settings, QPel : No
Format settings, GMC : No warppoints
Format settings, Matrix : Custom
Codec ID : XVID
Codec ID/Hint : XviD
Duration : 1h 44mn
Bit rate : 1 606 Kbps
Width : 720 pixels
Height : 304 pixels
Display aspect ratio : 2.35:1
Frame rate : 23.976 fps
Color space : YUV
Chroma subsampling : 4:2:0
Bit depth : 8 bits
Scan type : Progressive
Bits/(Pixel*Frame) : 0.306
Stream size : 1.17 GiB (80%)
Writing library : XviD 73

Audio
ID : 1
Format : AC-3
Format/Info : Audio Coding 3
Mode extension : CM (complete main)
Codec ID : 2000
Duration : 1h 44mn
Bit rate mode : Constant
Bit rate : 384 Kbps
Channel(s) : 6 channels
Channel positions : Front: L C R, Side: L R, LFE
Sampling rate : 48.0 KHz
Bit depth : 16 bits
Stream size : 287 MiB (19%)
Alignment : Split accross interleaves
Interleave, duration : 42 ms (1.00 video frame)
Interleave, preload duration : 500 ms



Скачать Всегда.говори.«ДА».Yes.Man.(Пейтон.Рид.Peyton.Reed).[2008.Комедия.BDRip].[MVO].+.Subs.(Rus).torrent без регистрации
Золото ЗОЛОТАЯ РАЗДАЧА! СКАЧАННОЕ НЕ ЗАСЧИТЫВАЕТСЯ! Золото
Дата: Зарегистрирован   [ Тип: внутренний ] Как тут cкачать?
MAGNET ссылка
MAGNET ссылка


Скачать .torrent

15 KB

Статус: проверено DHT
Скачан: торрент - 254 раз, раздача полностью - 361 раз
Размер: 1,46 GB
Оценка:  4,7 (Голосов: 3)
Поблагодарили: 7
Поделиться ссылкой на эту раздачу с друзьями:
В контактеFacebookОдноклассникиTwitterLivejournalМой МирLiveinternet
 

 
Показать сообщения:    


Вы не можете начинать темы
Вы не можете отвечать на сообщения
Вы не можете редактировать свои сообщения
Вы не можете удалять свои сообщения
Вы не можете голосовать в опросах
Вы не можете прикреплять файлы к сообщениям
Вы можете скачивать файлы