Loading...
Error

Скачать Июньский жук / Junebug ( Фил Моррисон) [2005, драма, комедия, BDRip] [MVO] торрент без регистрации

 
Статистика раздачи
Размер:  1,91 GB   |    Скачан:  102 раза
Сидов:  1  [  0 KB/s  ]  
 
Автор Сообщение

Marsianka

[] 

Название: Июньский жук
Оригинальное название: Junebug
Год выпуска: 2005
Жанр: драма, комедия
Выпущено: США, Epoch Films, Junebug Movie
Режиссер: Фил Моррисон
В ролях: Эмбет Дэвидц, Эми Адамс, Скотт Уилсон, Алессандро Нивола, Селия Уэстон, Бен МакКензи, Дэвид Кун, Алисия Ван Куверинг, Джерри Майнор, Мэтт Бессер, Уилл Олдхэм, Фрэнк Хойт Тейлор, Бобби Тисдэйл, Бет Бостич, Джоэнн Панкоу, Кевин Харлоу Джаспер, Джеффри Дин Фостер, Лаура Лэшли, Чак Расселл, Тарра Джолли, Джилл Вагнер, Эми Бэйрфут, Кэрри Дэниэл

О фильме: Мадлен, энергичная владелица галереи искусств из Чикаго, только что вышла замуж за Джорджа практически идеального франта-южанина. Когда однажды Мадлен приходится поехать в Северную Каролину по работе, Джордж решает познакомить её со своей семьей: раздражительной матерью Пег, неразговорчивым отцом Юджином, инфантильным братом Джонни и его наивной беременной женой Эшли, которая сразу приходит в священный трепет от своей гламурной невестки. Однако присутствие Мадлен нарушает хрупкое равновесие в семье и заставляет всплыть на поверхность все скрытые обиды и тревоги.

Качество: BDRip
Видео: XviD, 1915 Кбит/с, 720x400
Аудио: Русский (АС3, 2 ch, 192 Кбит/с), английский (AC3, 6 ch, 448 Кбит/с)
Размер: 1.90 ГБ
Продолжительность: 01:46:34
Перевод: Профессиональный многоголосый

Оскар, 2006 год
Номинации (1):
Лучшая женская роль второго плана (Эми Адамс)

Премия Гильдии актеров, 2006 год
Номинации (1):
Лучшая женская роль второго плана (Эми Адамс)

Санденс, 2005 год
Победитель (1):
Специальный приз жюри в категории «Драматический фильм»

Номинации (1):
Гран-при в категории «Драматический фильм»
Sweetheart

Junebug

Итак, фильм «Знакомство с родителями», только, в отличие от всем известной комедии, фильм с большим смыслом и душой. Нам показана одна обыкновенная семья, у которой вроде нет проблем, но все как-то несчастливы по-своему. Единственным исключением является молоденькая Эшли, ожидающая ребёнка с огромной радостью.
Фильм трогает за живое. Вроде бы, обычная, ничем не примечательная история, которая трогает до глубины души. Вместе с главной героиней Эшли надеешься на ребенка и веришь, что всё будет хорошо. Но это жизнь, а в жизни, как известно, хорошие концы случаются довольно редко.
Эми Адамс поразила своей игрой. Складывается чувство, что в фильме говорит только она, причём всё время и без умолку. Не ожидала от неё такой сильной эмоциональной роли, и не зря её номинировали на Оскар за эту роль...
И еще хочется отметить хорошую игру Эмбет Дэвидц и Алессандро Ниволы. Они прекрасно вписались в общий ход картины, а также в роль супружеской пары.

8 из 10

P.S. И если бы у вас родился сын, стали бы вы называть его Июнским жуком? Нет? Что ж, посмотрите фильм, вдруг передумаете.

Кинопоиск
Общее
Полное имя : E:VideoIjunskij.guk.2005.XviD.BDRipIjunskij.guk.2005.eng.srt
Размер файла : 174 Кбайт

Общее
Полное имя : E:VideoIjunskij.guk.2005.XviD.BDRipIjunskij.guk.2005.Original.eng.ac3
Формат : AC-3
Формат/Информация : Audio Coding 3
Размер файла : 342 Мбайт
Продолжительность : 1 ч. 46 м.
Режим общего битрейта : Постоянный
Общий поток : 448 Кбит/сек

Аудио
Формат : AC-3
Формат/Информация : Audio Coding 3
Расширение режима : CM (complete main)
Параметр Endianness формата : Big
Продолжительность : 1 ч. 46 м.
Вид битрейта : Постоянный
Битрейт : 448 Кбит/сек
Каналы : 6 каналов
Расположение каналов : Front: L C R, Side: L R, LFE
Частота : 48,0 КГц
Битовая глубина : 16 бит
Метод сжатия : С потерями
Размер потока : 342 Мбайт (100%)

Общее
Полное имя : E:VideoIjunskij.guk.2005.XviD.BDRipIjunskij.guk.2005.XviD.BDRip.avi
Формат : AVI
Формат/Информация : Audio Video Interleave
Размер файла : 1,58 Гбайт
Продолжительность : 1 ч. 46 м.
Общий поток : 2116 Кбит/сек
Программа кодирования : VirtualDubMod 1.5.10.2 (build 2540/release)
Библиотека кодирования : VirtualDubMod build 2540/release

Видео
Идентификатор : 0
Формат : MPEG-4 Visual
Профиль формата : Advanced Simple@L5
Параметр BVOP формата : 1
Параметр QPel формата : Нет
Параметр GMC формата : Без точки перехода
Параметр матрицы формата : Default (H.263)
Режим смешивания : Сжатый битовый поток
Идентификатор кодека : XVID
Идентификатор кодека/Подсказка : XviD
Продолжительность : 1 ч. 46 м.
Битрейт : 1915 Кбит/сек
Ширина : 720 пикселей
Высота : 400 пикселей
Соотношение сторон : 16:9
Частота кадров : 23,976 кадра/сек
Цветовое пространство : YUV
Субдискретизация насыщенности : 4:2:0
Битовая глубина : 8 бит
Тип развёртки : Прогрессивная
Метод сжатия : С потерями
Бит/(Пиксели*Кадры) : 0.277
Размер потока : 1,43 Гбайт (90%)
Библиотека кодирования : XviD 1.2.1 (UTC 2008-12-04)

Аудио
Идентификатор : 1
Формат : AC-3
Формат/Информация : Audio Coding 3
Расширение режима : CM (complete main)
Параметр Endianness формата : Big
Идентификатор кодека : 2000
Продолжительность : 1 ч. 46 м.
Вид битрейта : Постоянный
Битрейт : 192 Кбит/сек
Каналы : 2 канала
Расположение каналов : Front: L R
Частота : 48,0 КГц
Битовая глубина : 16 бит
Метод сжатия : С потерями
Размер потока : 146 Мбайт (9%)
Выравнивание : Разделение по промежуткам
Продолжительность промежутка : 42 мс. (1,00 видеокадр)
Время предзагрузки промежутка : 500 мс.



Скачать Июньский.жук.Junebug.(.Фил.Моррисон).[2005.драма.комедия.BDRip].[MVO].torrent без регистрации
Золото ЗОЛОТАЯ РАЗДАЧА! СКАЧАННОЕ НЕ ЗАСЧИТЫВАЕТСЯ! Золото
Дата: Зарегистрирован   [ Тип: внутренний ] Как тут cкачать?
MAGNET ссылка
MAGNET ссылка


Скачать .torrent

20 KB

Статус: проверено DHT
Скачан: торрент - 102 раз, раздача полностью - 12 раз
Размер: 1,91 GB
Оценка:  4 (Голосов: 1)
Поблагодарили: 1
Поделиться ссылкой на эту раздачу с друзьями:
В контактеFacebookОдноклассникиTwitterLivejournalМой МирLiveinternet
 

 
Показать сообщения:    


Вы не можете начинать темы
Вы не можете отвечать на сообщения
Вы не можете редактировать свои сообщения
Вы не можете удалять свои сообщения
Вы не можете голосовать в опросах
Вы не можете прикреплять файлы к сообщениям
Вы можете скачивать файлы