Loading...
Error

Скачать Агенты Щ.И.Т. / Agents of S.H.I.E.L.D. (сезон 01) (Джосс Уидон) [2013, приключения, фантастика, WEB-DL] [1080p] [Dub (Невафильм)] торрент без регистрации

 
Статистика раздачи
Размер:  36,55 GB   |    Скачан:  413 раз
Сидов:  1  [  0 KB/s  ]  
 
Автор Сообщение

МихаНЕзатор

[] 

Информация о фильме
Название: Агенты Щ.И.Т.
Оригинальное название: Marvel's Agents of S.H.I.E.L.D.
Год выхода: 2013-2014
Жанр: Боевик, фантастика, драма
Режиссер: Джесси Бокко, Милан Чейлов, Роксанн Доусон, Дэвид Стрейтон, Джосс Уидон, Винс Мисиано

В ролях: Кларк Грегг, Минг-На, Бретт Далтон, Хлоя Беннет, Йен де Кестекер, Элизабет Хенстридж, Дж. Аугуст Ричардс, Шеннон Лусио, Рон Гласс, Роберт Дж. Стефенсон, Коби Смолдерс, Аарон Бер, Николь Дж. Батлер, Сара Дюмон, Леонор Варела, Иэн Харт, Дэвид Конрад

О фильме: Действия сериала разворачиваются после событий в фильме "Мстители". Агент Фил Колсон возвращается в правоохранительную организацию под названием Щ.И.Т. Собрав небольшую команду профессионалов, он начинает работу над новыми делами, которые порой бывают очень странными. В команде Щ.И.Т.а мы увидим довольно-таки прямолинейного агента - Гранта, который является экспертом по шпионаже и боевым действиям; так же числе специалист по восточным единоборствам и пилот - агент Мелинда Мэй; гениальные ученые-социофобы Джемма Симмонс и Лео Фитц; недавно рекрутированный хакер - Скай. Сериал снятый по комиксам от Marvel's "Агенты Щ.И.Т." это настоящее эпическое приключение, демонстрирующее чудо человеческого духа и надежду на лучшее. Вы погрузитесь в мир супергероев, в мир неизведанного, в мир пришельцев, зрелищ и невероятных историй. Телесериал "Агенты Щ.И.Т." показывает нам не людей со сверхспособностями, а людей с огромной силой воли и невероятной храбростью, ведь несмотря на отсутствие каких-либо необычайных способностей, эти агенты рвутся в бой и спасают весь мир от злодеев и гибели. Ведь каждый из агентов по отдельности это сила и ум, ну а вместе они способны спасти всю планету.



Страна: США
Продолжительность: ~ 00:42:00
Перевод: Полное дублирование Невафильм

Файл
Кодек: H.264
Качество: WEB-DL 1080p
Видео: 4 872 Kbps, 1920x1080 (16:9), 23.976 fps
Аудио: AC3, 48.0 KHz, 2 ch, 192 kbps RU
Аудио 2: AC3, 48.0 KHz, 6 ch, 384 kbps EN
Субтитры: английские

АНОНСЫ ПОПУЛЯРНЫХ РАЗДАЧ


01.07.2014 г. торент обновлён, добавлена 13-21 серия!

General
Unique ID : 174587042445964816295772862822660395975 (0x83583DC580229EAC8FA1B04E030353C7)
Complete name : D:ЗагрузкиMarvels.Agents.of.S.H.I.E.L.D.1080pMarvels.Agents.of.S.H.I.E.L.D.S01E05.1080p.mkv
Format : Matroska
Format version : Version 4 / Version 2
File size : 1.64 GiB
Duration : 42mn 22s
Overall bit rate : 5 541 Kbps
Encoded date : UTC 2014-04-01 13:12:31
Writing application : mkvmerge v6.8.0 ('Theme for Great Cities') 64bit built on Mar 2 2014 21:34:26
Writing library : libebml v1.3.0 + libmatroska v1.4.1

Video
ID : 2
Format : AVC
Format/Info : Advanced Video Codec
Format profile : High@L4.0
Format settings, CABAC : Yes
Format settings, ReFrames : 4 frames
Codec ID : V_MPEG4/ISO/AVC
Duration : 42mn 22s
Bit rate : 4 855 Kbps
Width : 1 920 pixels
Height : 1 080 pixels
Display aspect ratio : 16:9
Frame rate mode : Constant
Frame rate : 23.976 fps
Color space : YUV
Chroma subsampling : 4:2:0
Bit depth : 8 bits
Scan type : Progressive
Bits/(Pixel*Frame) : 0.098
Stream size : 1.44 GiB (88%)
Title : WEB-DL (1080p)
Language : English
Default : Yes
Forced : No
Color primaries : BT.709
Transfer characteristics : BT.709
Matrix coefficients : BT.709

Audio #1
ID : 1
Format : AC-3
Format/Info : Audio Coding 3
Mode extension : CM (complete main)
Format settings, Endianness : Big
Codec ID : A_AC3
Duration : 42mn 22s
Bit rate mode : Constant
Bit rate : 192 Kbps
Channel(s) : 2 channels
Channel positions : Front: L R
Sampling rate : 48.0 KHz
Bit depth : 16 bits
Compression mode : Lossy
Stream size : 58.2 MiB (3%)
Title : Дубляж Невафильм
Language : Russian
Default : Yes
Forced : Yes

Audio #2
ID : 3
Format : AC-3
Format/Info : Audio Coding 3
Mode extension : CM (complete main)
Format settings, Endianness : Big
Codec ID : A_AC3
Duration : 42mn 22s
Bit rate mode : Constant
Bit rate : 384 Kbps
Channel(s) : 6 channels
Channel positions : Front: L C R, Side: L R, LFE
Sampling rate : 48.0 KHz
Bit depth : 16 bits
Compression mode : Lossy
Stream size : 116 MiB (7%)
Title : DD 5.1 @ 384 kbps ENG
Language : English
Default : No
Forced : No

Text
ID : 4
Format : UTF-8
Codec ID : S_TEXT/UTF8
Codec ID/Info : UTF-8 Plain Text
Title : English @ SRT
Language : English
Default : No
Forced : No



Скачать Агенты.Щ.И.Т.Agents.of.S.H.I.E.L.D.(сезон.01).(Джосс.Уидон).[2013.приключения.фантастика.WEB-DL].[1080p].[Dub.(Невафильм)].torrent без регистрации
Золото ЗОЛОТАЯ РАЗДАЧА! СКАЧАННОЕ НЕ ЗАСЧИТЫВАЕТСЯ! Золото
Дата: Зарегистрирован   [ Тип: внутренний ] Как тут cкачать?
MAGNET ссылка
MAGNET ссылка


Скачать .torrent

94 KB

Статус: проверено DHT
Скачан: торрент - 413 раз, раздача полностью - 141 раз
Размер: 36,55 GB
Оценка:  5 (Голосов: 3)
Поблагодарили: 7
Поделиться ссылкой на эту раздачу с друзьями:
В контактеFacebookОдноклассникиTwitterLivejournalМой МирLiveinternet
 

 

МихаНЕзатор

[] 

Раздача обновлена
 
Показать сообщения:    


Вы не можете начинать темы
Вы не можете отвечать на сообщения
Вы не можете редактировать свои сообщения
Вы не можете удалять свои сообщения
Вы не можете голосовать в опросах
Вы не можете прикреплять файлы к сообщениям
Вы можете скачивать файлы