Loading...
Error

Скачать Пророк / Next (Ли Тамахори / Lee Tamahori) [2007, фантастика, боевик, триллер, BDRip-AVC] [DVO] (Гланц и Королева) + [AVO] (Ю.Живов) торрент без регистрации

 
Статистика раздачи
Размер:  2,32 GB   |    Скачан:  137 раз
Сидов:  1  [  0 KB/s  ]  
 
Автор Сообщение

leon030982

[] 


Пророк
Next
«If you can see the future, you can save it.»


Год выпуска: 2007
Страна: США
Жанр: Фантастика, боевик, триллер, фэнтези, мелодрама
Продолжительность: 01:36:12
Перевод №1: Профессиональный (двухголосый, закадровый)[П.Гланц и И.Королева]
Перевод №2: Авторский(одноголосный)[Ю.Живов]
Субтитры: Русские, английские
Навигация по главам: Есть
Режиссер: Ли Тамахори / Lee Tamahori
В ролях: Николас Кейдж (Cris Johnson), Джулианна Мур (Callie Ferris), Джессика Бил (Liz Cooper), Томас Кречманн (Mr. Smith), Тори Киттлз (Cavanaugh), Хосе Суньига (Security Chief Roybal), Джим Бивер (Wisdom), Джейсон Батлер Харнер (Jeff Baines), Майкл Трукко (Kendall), Энзо Силенти (Mr. Jones), Летиция Даниэль (Miss Brown), Николас Пэджон (Mr. Green)
Описание: У Криса Джонсона есть секрет, отравляющий его жизнь: он может предсказывать ближайшее будущее. Устав от бесконечного внимания правительства и медицинских центров, пытающихся разгадать природу его удивительных способностей, Крис ложится на дно.Под вымышленным именем он работает в Лас-Вегасе, где развлекает публику дешевыми фокусами. Но когда группа террористов угрожает Лос-Анджелесу, специальному агенту Калли Феррис придется собрать все силы, чтобы разыскать Криса и убедить его помочь предотвратить катастрофу.



Качество: BDRip-AVC [Исх. BDRemux]
Формат: MKV
Видео кодек: H.264
Видео: MPEG4/ISO/AVC, 1148x476 (2.40:1), 2996 Kbps, 23,976 fps, 0,229 bpp
Аудио №1: 48 kHz, AC3 Dolby Digital, 2/0 (L,R) ch, ~192.00 kbps avg[DVO]
Аудио №2: 48 kHz, AC3 Dolby Digital, 2/0 (L,R) ch, ~192.00 kbps avg[AVO]
Субтитры: Русские, английские [UTF-8; SRT]
Различные варианты течения событий похожи на имитацию компьютерной игры, где есть возможность пройти один и тот же эпизод по новому, аналогичная идея использовалась в фильме «Беги, Лола, беги».
Момент в конце фильма, когда Крис уворачивается от пуль террориста, схватившего его подругу, напоминает сцену из «Матрицы» с участием Нео. Несколько эпизодов фильма снята в горах Сан Бернардино в Калифорнии. Отель «Обрыв», где остановились Крис и его подруга, являются на самом деле рестораном, поэтому фасаду придали вид здания. При этом интерьер номера был снят в другом месте. После съемок фасад был разрушен.
Из-за неподходящего рельефа местности сцену с падением автомобиля пришлось снимать в двух разных местах. Машина начала скатываться вниз у ресторана «Обрыв». Все остальные кадры падения были сняты в районе палаточного лагеря «Большое медвежье озеро», который находится в 40 милях от ресторана.
Финальные титры также показывают способность главного героя предвидеть будущее, поэтому они прокручиваются сверху вниз, при этом непривычно читать текст, идущий по строкам снизу вверх.
Кафе, в котором Крис встретил Лиз, использовалось для съемок в начальных и финальных сценах фильма «Криминальное чтиво».
Фильм снят по рассказу Филипа К. Дика "Золотой человек".
General
Complete name : E:\INTERNET\Nеxt.2007.BDRip-AVC.[DVO](Glanz_Koroleva)+[AVO](Jivov).Km.mkv
Format : Matroska
File size : 2.32 GiB
Duration : 1h 36mn
Overall bit rate : 3 448 Kbps
Encoded date : UTC 2013-09-28 06:41:21
Writing application : mkvmerge v4.2.0 ('No Talking') сборка от Jul 28 2010 18:38:23
Writing library : libebml v1.0.0 + libmatroska v1.0.0

Video
ID : 1
Format : AVC
Format/Info : Advanced Video Codec
Format profile : High@L4.0
Format settings, CABAC : Yes
Format settings, ReFrames : 12 frames
Muxing mode : Container profile=Unknown@4.0
Codec ID : V_MPEG4/ISO/AVC
Duration : 1h 36mn
Bit rate : 2 996 Kbps
Width : 1 148 pixels
Height : 476 pixels
Display aspect ratio : 2.40:1
Frame rate : 23.976 fps
Color space : YUV
Chroma subsampling : 4:2:0
Bit depth : 8 bits
Scan type : Progressive
Bits/(Pixel*Frame) : 0.229
Stream size : 2.01 GiB (87%)
Writing library : x264 core 105 r1724 b02df7b
Encoding settings : cabac=1 / ref=12 / deblock=1:-2:-1 / analyse=0x3:0x133 / me=umh / subme=10 / psy=1 / psy_rd=1.10:0.15 / mixed_ref=1 / me_range=32 / chroma_me=1 / trellis=2 / 8x8dct=1 / cqm=0 / deadzone=21,11 / fast_pskip=1 / chroma_qp_offset=-3 / threads=6 / sliced_threads=0 / nr=0 / decimate=1 / interlaced=0 / constrained_intra=0 / bframes=11 / b_pyramid=2 / b_adapt=2 / b_bias=0 / direct=3 / weightb=1 / open_gop=0 / weightp=2 / keyint=250 / keyint_min=23 / scenecut=40 / intra_refresh=0 / rc=crf / mbtree=0 / crf=19.5 / qcomp=0.60 / qpmin=10 / qpmax=51 / qpstep=4 / ip_ratio=1.40 / pb_ratio=1.20 / aq=2:1.00
Matrix coefficients : BT.709-5, BT.1361, IEC 61966-2-4 709, SMPTE RP177

Audio #1
ID : 2
Format : AC-3
Format/Info : Audio Coding 3
Mode extension : CM (complete main)
Codec ID : A_AC3
Duration : 1h 36mn
Bit rate mode : Constant
Bit rate : 192 Kbps
Channel(s) : 2 channels
Channel positions : Front: L R
Sampling rate : 48.0 KHz
Bit depth : 16 bits
Stream size : 132 MiB (6%)
Title : DVO(Glanz_Koroleva)
Language : Russian

Audio #2
ID : 3
Format : AC-3
Format/Info : Audio Coding 3
Mode extension : CM (complete main)
Codec ID : A_AC3
Duration : 1h 36mn
Bit rate mode : Constant
Bit rate : 192 Kbps
Channel(s) : 2 channels
Channel positions : Front: L R
Sampling rate : 48.0 KHz
Bit depth : 16 bits
Stream size : 132 MiB (6%)
Title : AVO(Jivov)
Language : Russian

Text #1
ID : 4
Format : UTF-8
Codec ID : S_TEXT/UTF8
Codec ID/Info : UTF-8 Plain Text
Title : Русские
Language : Russian

Text #2
ID : 5
Format : UTF-8
Codec ID : S_TEXT/UTF8
Codec ID/Info : UTF-8 Plain Text
Title : Английские

Menu
00:00:00.000 : en:Chapter 1
00:02:28.773 : en:Chapter 2
00:10:06.314 : en:Chapter 3
00:11:45.955 : en:Chapter 4
00:16:14.974 : en:Chapter 5
00:20:14.421 : en:Chapter 6
00:21:02.678 : en:Chapter 7
00:27:54.881 : en:Chapter 8
00:30:17.524 : en:Chapter 9
00:36:18.634 : en:Chapter 10
00:42:12.613 : en:Chapter 11
00:48:20.772 : en:Chapter 12
00:56:10.617 : en:Chapter 13
01:02:01.092 : en:Chapter 14
01:11:04.927 : en:Chapter 15
01:19:16.877 : en:Chapter 16
01:26:07.078 : en:Chapter 17
01:30:36.681 : en:Chapter 18



Скачать Пророк.Next.(Ли.Тамахори.Lee.Tamahori).[2007.фантастика.боевик.триллер.BDRip-AVC].[DVO].(Гланц.и.Королева).+.[AVO].(Ю.Живов).torrent без регистрации
Золото ЗОЛОТАЯ РАЗДАЧА! СКАЧАННОЕ НЕ ЗАСЧИТЫВАЕТСЯ! Золото
Дата: Зарегистрирован   [ Тип: внутренний ] Как тут cкачать?
MAGNET ссылка
MAGNET ссылка


Скачать .torrent

12 KB

Статус: проверено DHT
Скачан: торрент - 137 раз, раздача полностью - 30 раз
Размер: 2,32 GB
Оценка:  5 (Голосов: 2)
Поблагодарили: 5
Поделиться ссылкой на эту раздачу с друзьями:
В контактеFacebookОдноклассникиTwitterLivejournalМой МирLiveinternet
 

 
Показать сообщения:    


Вы не можете начинать темы
Вы не можете отвечать на сообщения
Вы не можете редактировать свои сообщения
Вы не можете удалять свои сообщения
Вы не можете голосовать в опросах
Вы не можете прикреплять файлы к сообщениям
Вы можете скачивать файлы