Loading...
Error

Скачать Как я встретил вашу маму / How I Met Your Mother (сезон 09) (Картер Бэйс, Памела Фрайман, Крейг Томас) [2012, мелодрама, комедия, WEB-DLRip] [VO (Кураж-Бамбей)] торрент без регистрации

 
Статистика раздачи
Размер:  5,57 GB   |    Скачан:  2597 раз
Сидов:  1  [  0 KB/s  ]  
 
Автор Сообщение

МихаНЕзатор

[] 

Как я встретил вашу маму / How I Met Your Mother


Год выпуска: 2013
Страна: США
Жанр: комедия
Продолжительность: 22:00
Перевод: Профессиональный (одноголосый, закадровый) - Кураж-Бамбей

Режиссёр: Памела Фрайман, Роб Гринберг, Майкл Ши
В ролях: Джош Рэднор, Джейсон Сегел, Коби Смалдерс, Нил Патрик Хэррис, Эллисон Хэнниган и др.

Описание: Как я встретил вашу маму комедия про Теда и про то, как он влюбился. Все неприятности начинаются с того, что лучший друг Теда, Маршалл вдруг неожиданно сообщил, что он хочет сделать предложение своей давней подруге, Лили, воспитательнице детского сада. К тому времени Тед понимает, что ему нужно прилагать больше усилий, если он действительно надеется найти свою настоящую любовь. Помогает ему в этих поисках его друг Барни, убежденный холостяк, вечно со своим, иногда чересчур, мнением на все происходящее, со склонностью к костюмам и верным способом познакомиться с девушками. Когда Тед встречает Робин, он решает, что это любовь с первого взгляда, но у судьбы в запасе есть кое-что еще.



Дополнительная информация:
Озвучка: Кураж-Бамбей
Подготовка видео: TaLi4
Постер: TaLi4

Тех. данные:
Качество: WEB-DLRip
Формат: AVI
Видео кодек: XviD
Аудио кодек: MP3
Видео: 720x400 (1.80:1), 23.976 fps, XviD build 64 ~1248 kbps avg, 0.18 bit/pixel
Аудио #1: 48 kHz, MPEG Layer 3, 2 ch, ~128.00 kbps avg | Кураж-Бамбей |
Аудио #2: 48 kHz, MPEG Layer 3, 2 ch, ~128.00 kbps avg | Оригинал |

АНОНСЫ ПОПУЛЯРНЫХ РАЗДАЧ


07.04.2014 г. торент обновлён, добавлена 19-24 серия!

01. The Locket
02. Coming Back
03. Last Time in New York
04. The Broken Code
05. The Poker Game
06. Knight Vision
07. No Questions Asked
08. The Lighthouse
09. Platonish
10. Mom and Dad
11. Bedtime Stories
12. The Rehearsal Dinner
13. Bass Player Wanted
14. Slapsgiving 3: Slappointment in Slapmarra
15. Unpause
16. How Your Mother Met Me
17. Sunrise
18. Rally
19. Vesuvius
20. Daisy
21. Gary Blauman
22. The End of the Aisle
23. Last Forever: Part One
24. Last Forever: Part Two

General
Complete name : C:UsersАдминистраторDesktopРаздачиHow I Met You Mother Season 9 Kuraj-Bambeyhow.i.met.your.mother.s09e01.web-dlrip.rus.eng.Kuraj-Bambey.avi
Format : AVI
Format/Info : Audio Video Interleave
File size : 235 MiB
Duration : 21mn 36s
Overall bit rate : 1 520 Kbps
Writing application : VirtualDubMod 1.5.10.3 (build 2550/release)
Writing library : VirtualDubMod build 2550/release

Video
ID : 0
Format : MPEG-4 Visual
Format profile : Advanced Simple@L5
Format settings, BVOP : 2
Format settings, QPel : No
Format settings, GMC : No warppoints
Format settings, Matrix : Default (H.263)
Codec ID : XVID
Codec ID/Hint : XviD
Duration : 21mn 36s
Bit rate : 1 250 Kbps
Width : 720 pixels
Height : 400 pixels
Display aspect ratio : 16:9
Frame rate : 23.976 fps
Color space : YUV
Chroma subsampling : 4:2:0
Bit depth : 8 bits
Scan type : Progressive
Compression mode : Lossy
Bits/(Pixel*Frame) : 0.181
Stream size : 193 MiB (82%)
Writing library : XviD 64

Audio #1
ID : 1
Format : MPEG Audio
Format version : Version 1
Format profile : Layer 3
Mode : Joint stereo
Mode extension : MS Stereo
Codec ID : 55
Codec ID/Hint : MP3
Duration : 21mn 36s
Bit rate mode : Constant
Bit rate : 128 Kbps
Channel(s) : 2 channels
Sampling rate : 48.0 KHz
Compression mode : Lossy
Stream size : 19.8 MiB (8%)
Alignment : Aligned on interleaves
Interleave, duration : 42 ms (1.00 video frame)
Interleave, preload duration : 504 ms
Writing library : LAME3.99r
Encoding settings : -m j -V 4 -q 3 -lowpass 17 -b 128

Audio #2
ID : 2
Format : MPEG Audio
Format version : Version 1
Format profile : Layer 3
Mode : Joint stereo
Mode extension : MS Stereo
Codec ID : 55
Codec ID/Hint : MP3
Duration : 21mn 36s
Bit rate mode : Constant
Bit rate : 128 Kbps
Channel(s) : 2 channels
Sampling rate : 48.0 KHz
Compression mode : Lossy
Stream size : 19.8 MiB (8%)
Alignment : Aligned on interleaves
Interleave, duration : 42 ms (1.00 video frame)
Interleave, preload duration : 504 ms
Writing library : LAME3.99r
Encoding settings : -m j -V 4 -q 0 -lowpass 17 -b 128

Внимание! Раздача ведётся путём добавления новых серий; при каждом добавлении создётся новый торрент. Чтобы начать докачку новой серии, пользователям необходимо сделать следующее:
(1) остановить скачивание,
(2) удалить старый торрент у себя из клиента (старые серии удалять не надо),
(3) скачать новый торрент и запустить его у себя в клиенте вместо старого, при этом указать клиенту путь в старую папку куда и должно происходить скачивание новых серий.

Ваш клиент при этом должен произвести хеширование (проверку) старой папки (если не производит сам - помогите ему сделать это), и будет докачивать только те серии которых у вас ещё нет. Старые серии при этом не удаляются, а продолжают раздаваться!

Eсли вы уже удалили старые серии, то предотвратить повторную закачку старых серий можно, отжав галочку в соответсвующих местах при запуске нового торрента. По возможности, желательно не удалять старые серии как можно дольше чтобы релизёр не столько продолжал раздавать старые серии, а смог сконцентрироваться на новых.



Скачать Как.я.встретил.вашу.маму.How.I.Met.Your.Mother.(сезон.09).(Картер.Бэйс.Памела.Фрайман.Крейг.Томас).[2012.мелодрама.комедия.WEB-DLRip].[VO.(Кураж-Бамбей)].torrent без регистрации
Золото ЗОЛОТАЯ РАЗДАЧА! СКАЧАННОЕ НЕ ЗАСЧИТЫВАЕТСЯ! Золото
Дата: Зарегистрирован   [ Тип: внутренний ] Как тут cкачать?
MAGNET ссылка
MAGNET ссылка


Скачать .torrent

17 KB

Статус: проверено DHT
Скачан: торрент - 2597 раз, раздача полностью - 75 раз
Размер: 5,57 GB
Оценка:  - (Голосов: 0)
Поблагодарили: 2
Поделиться ссылкой на эту раздачу с друзьями:
В контактеFacebookОдноклассникиTwitterLivejournalМой МирLiveinternet
 

 

МихаНЕзатор

[] 

Раздача обновлена
 

julika38

[] 

ay
 
Показать сообщения:    


Вы не можете начинать темы
Вы не можете отвечать на сообщения
Вы не можете редактировать свои сообщения
Вы не можете удалять свои сообщения
Вы не можете голосовать в опросах
Вы не можете прикреплять файлы к сообщениям
Вы можете скачивать файлы