Loading...
Error

Скачать Два с половиной человека / Two and a Half Men (11х01-17) (Ли Аронсон, Чак Лорри) [2013, комедия, WEB-DL] [720p] [Sub] торрент без регистрации

 
Статистика раздачи
Размер:  11,35 GB   |    Скачан:  219 раз
Сидов:  1  [  0 KB/s  ]  
 
Автор Сообщение

МихаНЕзатор

[] 

Два с половиной человека / Two and a Half Men


Год выпуска: 2013
Страна: США
Канал: CBS
Жанр: комедия
Продолжительность: 00:21:22
Перевод: Субтитры (Notabenoid: IronFOX, AkI3aIPuyC, obezyna и др.)
Русские субтитры: есть (отдельным файлом)
Английские субтитры: есть (в контейнере)

Режиссёр: Ли Аронсон, Чак Лорри
В ролях: Джон Крайер, Эштон Катчер, Эмбер Тэмблин, Кончата Феррелл, Холланд Тейлор, Марин Хинкль, Мелани Лински, Дженнифер Бини Тейлор, Райан Стайлз, Эйприл Боулби и др.

Описание: Спустя восемь лет, после того как в особняке на побережье Малибу сумбурно поселился "свежеразведенный" бездомный Алан Харпер, не стало его брата - хозяина особняка, местного бабника и знатного алкоголика Чарли. Но ушли ли с ним приключения семейства Харперов? Вряд ли, т.к. новым хозяином шикарного жилища становится очень незаурядная личность - некий Уолден Шмидт.



Качество: WEB-DL 720p
Формат: MKV
Видеокодек: AVC
Аудиокодек: AC3
Видео: 1276x720 (16:9), 23.976 fps, 3 924 kbps, ~0.178 bit/pixel
Аудио: 384 Kbps, 48.0 KHz, 6 channels
Субтитры: softsub (SRT)

09.05.2014 г. торент обновлён, добавлена 11-17 серия!

01 - Nangnangnangnang / Ням-ням-ням-ням

General
Format : Matroska
Format version : Version 2
File size : 672 MiB
Duration : 21mn 22s
Overall bit rate : 4 395 Kbps
Encoded date : UTC 2013-09-27 08:47:18
Writing application : mkvmerge v5.8.0 ('No Sleep / Pillow') built on Sep 2 2012 15:37:04
Writing library : libebml v1.2.3 + libmatroska v1.3.0
Video #1
ID : 1
Format : AVC
Format/Info : Advanced Video Codec
Format profile : High@L3.1
Format settings, CABAC : No
Format settings, ReFrames : 2 frames
Codec ID : V_MPEG4/ISO/AVC
Duration : 21mn 22s
Bit rate : 3 924 Kbps
Width : 1 276 pixels
Height : 720 pixels
Display aspect ratio : 16:9
Frame rate mode : Constant
Frame rate : 23.976 fps
Color space : YUV
Chroma subsampling : 4:2:0
Bit depth : 8 bits
Scan type : Progressive
Bits/(Pixel*Frame) : 0.178
Stream size : 600 MiB (89%)
Language : English
Default : Yes
Forced : No
Color primaries : BT.709
Transfer characteristics : BT.709
Matrix coefficients : BT.709
Audio #2
ID : 2
Format : AC-3
Format/Info : Audio Coding 3
Mode extension : CM (complete main)
Format settings, Endianness : Big
Codec ID : A_AC3
Duration : 21mn 22s
Bit rate mode : Constant
Bit rate : 384 Kbps
Channel(s) : 6 channels
Channel positions : Front: L C R, Side: L R, LFE
Sampling rate : 48.0 KHz
Bit depth : 16 bits
Compression mode : Lossy
Stream size : 58.7 MiB (9%)
Language : English
Default : Yes
Forced : No
Text #3
ID : 3
Format : UTF-8
Codec ID : S_TEXT/UTF8
Codec ID/Info : UTF-8 Plain Text
Title : CC
Language : English
Default : No
Forced : No

Внимание! Раздача ведётся путём добавления новых серий; при каждом добавлении создётся новый торрент. Чтобы начать докачку новой серии, пользователям необходимо сделать следующее:
(1) остановить скачивание,
(2) удалить старый торрент у себя из клиента (старые серии удалять не надо),
(3) скачать новый торрент и запустить его у себя в клиенте вместо старого, при этом указать клиенту путь в старую папку куда и должно происходить скачивание новых серий.
Ваш клиент при этом должен произвести хеширование (проверку) старой папки (если не производит сам - помогите ему сделать это), и будет докачивать только те серии которых у вас ещё нет. Старые серии при этом не удаляются, а продолжают раздаваться!
Eсли вы уже удалили старые серии, то предотвратить повторную закачку старых серий можно, отжав галочку в соответсвующих местах при запуске нового торрента. По возможности, желательно не удалять старые серии как можно дольше чтобы релизёр не столько продолжал раздавать старые серии, а смог сконцентрироваться на новых.



Скачать Два.с.половиной.человека.Two.and.a.Half.Men.(11х01-17).(Ли.Аронсон.Чак.Лорри).[2013.комедия.WEB-DL].[720p].[Sub].torrent без регистрации
Золото ЗОЛОТАЯ РАЗДАЧА! СКАЧАННОЕ НЕ ЗАСЧИТЫВАЕТСЯ! Золото
Дата: Зарегистрирован   [ Тип: внутренний ] Как тут cкачать?
MAGNET ссылка
MAGNET ссылка


Скачать .torrent

33 KB

Статус: проверено DHT
Скачан: торрент - 219 раз, раздача полностью - 0 раз
Размер: 11,35 GB
Оценка:  - (Голосов: 0)
Поблагодарили: 1
Поделиться ссылкой на эту раздачу с друзьями:
В контактеFacebookОдноклассникиTwitterLivejournalМой МирLiveinternet
 

 

МихаНЕзатор

[] 

Раздача обновлена
 
Показать сообщения:    


Вы не можете начинать темы
Вы не можете отвечать на сообщения
Вы не можете редактировать свои сообщения
Вы не можете удалять свои сообщения
Вы не можете голосовать в опросах
Вы не можете прикреплять файлы к сообщениям
Вы можете скачивать файлы