Loading...
Error

Скачать Два с половиной человека / Two and a Half Men (11х01-20 из 24) (Ли Аронсон, Чак Лорри) [2013, комедия, WEB-DLRip] [VOVO (T.Rec Pro)]+[Original] торрент без регистрации

 
Статистика раздачи
Размер:  4,59 GB   |    Скачан:  149 раз
Сидов:  1  [  0 KB/s  ]  
 
Автор Сообщение

МихаНЕзатор

[] 

Два с половиной человека / Two and a Half Men


Год выпуска: 2013
Страна: США
Жанр: комедия
Продолжительность: ~00:21:22
Перевод: Любительский (одноголосый закадровый) - T.Rec Pro
Русские субтитры: нет

Режиссёр: Ли Аронсон, Чак Лорри
В ролях: Джон Крайер, Эштон Катчер, Эмбер Тэмблин, Кончата Феррелл, Холланд Тейлор, Марин Хинкль, Мелани Лински, Дженнифер Бини Тейлор, Райан Стайлз, Эйприл Боулби и др.

Описание: Спустя восемь лет, после того как в особняке на побережье Беверли Хиллз сумбурно поселился "свежеразведенный" бездомный Алан Харпер, не стало его брата - хозяина особняка, местного бабника и знатного алкоголика Чарли. Но ушли ли с ним приключения семейства Харперов? Вряд ли, т.к. новым хозяином шикарного жилища становится очень незаурядная личность - некий Уолден Шмидт.

Доп. информация:
Релиз
Перевод: Notabenoid: IronFOX, AkI3aIPuyC, obezyna и др.
Озвучка:T.Rec Pro, текст читал kolyan
Подготовка видео: TaLi4



Качество: WEB-DLRip
Формат: AVI
Видео кодек: XviD
Аудио кодек: MP3
Видео: 720x400 (1.80:1), 23.976 fps, XviD build 64 ~1238 kbps avg, 0.18 bit/pixel
Аудио #1: 48 kHz, MPEG Layer 3, 2 ch, ~128.00 kbps avg | T.Rec Pro |
Аудио #2: 48 kHz, MPEG Layer 3, 2 ch, ~128.00 kbps avg | Оригинал |

АНОНСЫ ПОПУЛЯРНЫХ РАЗДАЧ


08.05.2014 г. торент обновлён, добавлена 2-20 серия!

General
Complete name : C:UsersАдминистраторDesktopРаздачиTwo And A Half Men Season 11two.and.a.half.men.s11e01.web-dlrip.rus.eng.avi
Format : AVI
Format/Info : Audio Video Interleave
File size : 231 MiB
Duration : 21mn 22s
Overall bit rate : 1 510 Kbps
Writing application : VirtualDubMod 1.5.10.3 (build 2550/release)
Writing library : VirtualDubMod build 2550/release

Video
ID : 0
Format : MPEG-4 Visual
Format profile : Advanced Simple@L5
Format settings, BVOP : 2
Format settings, QPel : No
Format settings, GMC : No warppoints
Format settings, Matrix : Default (H.263)
Codec ID : XVID
Codec ID/Hint : XviD
Duration : 21mn 22s
Bit rate : 1 240 Kbps
Width : 720 pixels
Height : 400 pixels
Display aspect ratio : 16:9
Frame rate : 23.976 fps
Color space : YUV
Chroma subsampling : 4:2:0
Bit depth : 8 bits
Scan type : Progressive
Compression mode : Lossy
Bits/(Pixel*Frame) : 0.180
Stream size : 190 MiB (82%)
Writing library : XviD 64

Audio #1
ID : 1
Format : MPEG Audio
Format version : Version 1
Format profile : Layer 3
Mode : Joint stereo
Mode extension : MS Stereo
Codec ID : 55
Codec ID/Hint : MP3
Duration : 21mn 22s
Bit rate mode : Constant
Bit rate : 128 Kbps
Channel(s) : 2 channels
Sampling rate : 48.0 KHz
Compression mode : Lossy
Stream size : 19.6 MiB (8%)
Alignment : Aligned on interleaves
Interleave, duration : 42 ms (1.00 video frame)
Interleave, preload duration : 504 ms
Writing library : LAME3.99r
Encoding settings : -m j -V 4 -q 0 -lowpass 17 -b 128

Audio #2
ID : 2
Format : MPEG Audio
Format version : Version 1
Format profile : Layer 3
Mode : Joint stereo
Mode extension : MS Stereo
Codec ID : 55
Codec ID/Hint : MP3
Duration : 21mn 22s
Bit rate mode : Constant
Bit rate : 128 Kbps
Channel(s) : 2 channels
Sampling rate : 48.0 KHz
Compression mode : Lossy
Stream size : 19.6 MiB (8%)
Alignment : Aligned on interleaves
Interleave, duration : 42 ms (1.00 video frame)
Interleave, preload duration : 504 ms
Writing library : LAME3.99r
Encoding settings : -m j -V 4 -q 0 -lowpass 17 -b 128

Внимание! Раздача ведётся путём добавления новых серий; при каждом добавлении создётся новый торрент. Чтобы начать докачку новой серии, пользователям необходимо сделать следующее:
(1) остановить скачивание,
(2) удалить старый торрент у себя из клиента (старые серии удалять не надо),
(3) скачать новый торрент и запустить его у себя в клиенте вместо старого, при этом указать клиенту путь в старую папку куда и должно происходить скачивание новых серий.

Ваш клиент при этом должен произвести хеширование (проверку) старой папки (если не производит сам - помогите ему сделать это), и будет докачивать только те серии которых у вас ещё нет. Старые серии при этом не удаляются, а продолжают раздаваться!

Eсли вы уже удалили старые серии, то предотвратить повторную закачку старых серий можно, отжав галочку в соответсвующих местах при запуске нового торрента. По возможности, желательно не удалять старые серии как можно дольше чтобы релизёр не столько продолжал раздавать старые серии, а смог сконцентрироваться на новых.



Скачать Два.с.половиной.человека.Two.and.a.Half.Men.(11х01-20.из.24).(Ли.Аронсон.Чак.Лорри).[2013.комедия.WEB-DLRip].[VOVO.(T.Rec.Pro)]+[Original].torrent без регистрации
Золото ЗОЛОТАЯ РАЗДАЧА! СКАЧАННОЕ НЕ ЗАСЧИТЫВАЕТСЯ! Золото
Дата: Зарегистрирован   [ Тип: внутренний ] Как тут cкачать?
MAGNET ссылка
MAGNET ссылка


Скачать .torrent

25 KB

Статус: проверено DHT
Скачан: торрент - 149 раз, раздача полностью - 0 раз
Размер: 4,59 GB
Оценка:  4 (Голосов: 1)
Поблагодарили: 1
Поделиться ссылкой на эту раздачу с друзьями:
В контактеFacebookОдноклассникиTwitterLivejournalМой МирLiveinternet
 

 

Kovex

[] 

Хде продолжение aq aq aq и нафик удалять посты???
 

МихаНЕзатор

[] 

Раздача обновлена.
 
Показать сообщения:    


Вы не можете начинать темы
Вы не можете отвечать на сообщения
Вы не можете редактировать свои сообщения
Вы не можете удалять свои сообщения
Вы не можете голосовать в опросах
Вы не можете прикреплять файлы к сообщениям
Вы можете скачивать файлы