Loading...
Error

Скачать Время бешеных псов / Mad Dog Time (Ларри Бишоп / Larry Bishop) [1996, Комедия, драма, криминал, DVDRip] [AVO] (А.Гаврилов) + [MVO] (Неоклассика) торрент без регистрации

 
Статистика раздачи
Размер:  1,45 GB   |    Скачан:  111 раз
Сидов:  1  [  0 KB/s  ]  
 
Автор Сообщение

leon030982

[] 

Время бешеных псов / Mad Dog Time


Год выхода: 1996
Жанр: Комедия, драма, криминал
Страна: США
Продолжительность: 01:32:50
Перевод #1: Авторский (одноголосный, закадровый)[А.Гаврилов]
Перевод #2: Профессиональный (многоголосый закадровый)[Неоклассика]

Режиссер: Ларри Бишоп / Larry Bishop

В ролях: Джефф Голдблюм / Jeff Goldblum, Гэбриэл Бирн / Gabriel Byrne, Эллен Баркин / Ellen Barkin, Берт Рейнолдс / Burt Reynolds, Дайэн Лэйн / Diane Lane, Грегори Хайнс / Gregory Hines, Билли Драго / Billy Drago

О фильме: Владелец роскошного ресторана Вик на самом деле является главарем преступного мира по прозвищу «Бешеный пес». В соперничестве с другим крупным мафиози Мики Холлидеем он пытается установить полный контроль в клубном и игорном бизнесе. Для достижения этой цели используются все средства: от «девушек на ночь» до «русской рулетки».
В целом, ничем не примечательный, даже заштатный, сюжет этого фильма благодаря игре совершенно феноменальных Дрейфусса, Бирна, Голдблюма и др. превращается в настоящий деликатес для истинных ценителей «эстетского» кино. «Время Бешеных Псов», как уже говорилось в рецензиях других авторов, ближе к фильмам братьев Коэн ехидная карикатура на гангстерскую драму, так же, как «Большой Лебовский» был карикатурой на фильм-нуар.




Качество: DVDRip
Формат: AVI
Видео кодек: XviD
Аудио кодек: AC3
Видео: 720x480 (1.50:1), 29.970 fps, XviD MPEG-4 ~1584 kbps avg, 0.15 bit/pixe
Аудио #1: 48 kHz, AC3 Dolby Digital, 2/0 (L,R) ch, ~256.00 kbps avg [AVO]
Аудио #2: 48 kHz, AC3 Dolby Digital, 3/2 (L,C,R,l,r) + LFE ch, ~384.00 kbps avg [MVO]
General
Complete name : E:\INTERNET\Mad Dog Time.1996.DVDRip.AVO[Gavrilov]+MVO[Neoklassika].avi
Format : AVI
Format/Info : Audio Video Interleave
File size : 1.45 GiB
Duration : 1h 32mn
Overall bit rate : 2 241 Kbps
Genre : Comedy
Writing application : VirtualDubMod 1.5.10.3 (build 2550/release)
Writing library : VirtualDubMod build 2550/release

Video
ID : 0
Format : MPEG-4 Visual
Format profile : Advanced Simple@L5
Format settings, BVOP : Yes
Format settings, QPel : No
Format settings, GMC : No warppoints
Format settings, Matrix : Default (H.263)
Muxing mode : Packed bitstream
Codec ID : XVID
Codec ID/Hint : XviD
Duration : 1h 32mn
Bit rate : 1 585 Kbps
Width : 720 pixels
Height : 480 pixels
Display aspect ratio : 3:2
Frame rate : 29.970 fps
Standard : NTSC
Color space : YUV
Chroma subsampling : 4:2:0
Bit depth : 8 bits
Scan type : Progressive
Bits/(Pixel*Frame) : 0.153
Stream size : 1.03 GiB (71%)
Writing library : XviD 63

Audio #1
ID : 1
Format : AC-3
Format/Info : Audio Coding 3
Format profile : Dolby Digital
Mode extension : CM (complete main)
Codec ID : 2000
Duration : 1h 32mn
Bit rate mode : Constant
Bit rate : 256 Kbps
Channel(s) : 2 channels
Channel positions : Front: L R
Sampling rate : 48.0 KHz
Bit depth : 16 bits
Stream size : 170 MiB (11%)
Alignment : Split accross interleaves
Interleave, duration : 33 ms (1.00 video frame)
Interleave, preload duration : 500 ms

Audio #2
ID : 2
Format : AC-3
Format/Info : Audio Coding 3
Mode extension : CM (complete main)
Codec ID : 2000
Duration : 1h 32mn
Bit rate mode : Constant
Bit rate : 384 Kbps
Channel(s) : 6 channels
Channel positions : Front: L C R, Side: L R, LFE
Sampling rate : 48.0 KHz
Bit depth : 16 bits
Stream size : 254 MiB (17%)
Alignment : Split accross interleaves
Interleave, duration : 33 ms (1.00 video frame)
Interleave, preload duration : 500 ms



Скачать Время.бешеных.псов.Mad.Dog.Time.(Ларри.Бишоп.Larry.Bishop).[1996.Комедия.драма.криминал.DVDRip].[AVO].(А.Гаврилов).+.[MVO].(Неоклассика).torrent без регистрации
Золото ЗОЛОТАЯ РАЗДАЧА! СКАЧАННОЕ НЕ ЗАСЧИТЫВАЕТСЯ! Золото
Дата: Зарегистрирован   [ Тип: внутренний ] Как тут cкачать?
MAGNET ссылка
MAGNET ссылка


Скачать .torrent

15 KB

Статус: проверено DHT
Скачан: торрент - 111 раз, раздача полностью - 10 раз
Размер: 1,45 GB
Оценка:  5 (Голосов: 1)
Поблагодарили: 0
Поделиться ссылкой на эту раздачу с друзьями:
В контактеFacebookОдноклассникиTwitterLivejournalМой МирLiveinternet
 

 

leon030982

[] 

Занятный фильм ay ag Вот откуда Тарантино познания черпал ag Смотреть только нужно внимательно и ни на что не отвлекаясь ab
 
Показать сообщения:    


Вы не можете начинать темы
Вы не можете отвечать на сообщения
Вы не можете редактировать свои сообщения
Вы не можете удалять свои сообщения
Вы не можете голосовать в опросах
Вы не можете прикреплять файлы к сообщениям
Вы можете скачивать файлы