Loading...
Error

Скачать Они сохранили мозг Гитлера / They saved Hitler's brain (Дэвид Брэдли / David Bradley) [1968, фантастика, триллер, шпионский фильм, DVDRip] [VO(Трамвай-фильм)] торрент без регистрации

 
Статистика раздачи
Размер:  694 MB   |    Скачан:  114 раз

Полного источника не было: 8 месяцев

 
Автор Сообщение

deadmauVlad

[] 


Они сохранили мозг Гитлера / They saved Hitler's brain


Год выпуска: 1968
Выпущено: США
Жанр: фантастика, триллер, шпионский фильм
Продолжительность: 01:32:58
Перевод: Профессиональный (одноголосый) Трамвай-фильм
Субтитры: отсутствуют

Режиссер: Дэвид Брэдли / David Bradley

В ролях: Уолтер Стокер,Одри Кейр,Карлос Ривас,Джон Холлэнд,Маршалл Рид,Скотт Питерс,Кит Дахле,Дэни Линн,Нестор Пайва,Педро Регас

Описание: В конце Второй мировой войны нацисты отделили голову покончившего жизнь самоубийство Гитлера от мёртвого тела
и спрятали в одной из стран Южной Америки с целью впоследствии восстановить Третий рейх.
В шестидесятых годах фашисты решают, что их время пришло. Они похищают знаменитого ученого, профессора Джона Колемана,
чтобы тот оживил голову Гитлера. За расследование похищения берется правительственный агент Фил Дей.
Ему помогает дочь профессора Кэти. Вскоре расследование приводит агентов на один из островов в Карибском море…





Доп. информация:
General
Complete name : D:\torrent\1 раздачи\Они сохранили мозг Гитлера\Они сохранили мозг Гитлера (1968).avi
Format : AVI
Format/Info : Audio Video Interleave
File size : 694 MiB
Duration : 1h 32mn
Overall bit rate : 1 044 Kbps

Video
ID : 0
Format : mp43
Codec ID : mp43
Duration : 1h 32mn
Bit rate : 899 Kbps
Width : 640 pixels
Height : 480 pixels
Display aspect ratio : 4:3
Frame rate : 29.970 fps
Bits/(Pixel*Frame) : 0.098
Stream size : 598 MiB (86%)

Audio
ID : 1
Format : MPEG Audio
Format version : Version 1
Format profile : Layer 3
Mode : Joint stereo
Mode extension : MS Stereo
Codec ID : 55
Codec ID/Hint : MP3
Duration : 1h 32mn
Bit rate mode : Constant
Bit rate : 128 Kbps
Channel count : 2 channels
Sampling rate : 44.1 KHz
Compression mode : Lossy
Stream size : 85.1 MiB (12%)
Alignment : Aligned on interleaves
Interleave, duration : 26 ms (0.78 video frame)
Writing library : LAME3.98


Качество: DVDRip
Формат: AVI
Видео кодек: XviD
Аудио кодек: MP3
Видео: mp43, 899 Kbps, 640x480, 29.970 fps
Аудио: MPEG Audio, Layer 3, MS Stereo, MP3, 2 channels, 44.1 KHz






Скачать Они.сохранили.мозг.Гитлера.They.saved.Hitler's.brain.(Дэвид.Брэдли.David.Bradley).[1968.фантастика.триллер.шпионский.фильм.DVDRip].[VO(Трамвай-фильм)].torrent без регистрации
Золото ЗОЛОТАЯ РАЗДАЧА! СКАЧАННОЕ НЕ ЗАСЧИТЫВАЕТСЯ! Золото
Дата: Зарегистрирован   [ Тип: внутренний ] Как тут cкачать?
MAGNET ссылка
MAGNET ссылка


Скачать .torrent

14 KB

Статус: проверено
Скачан: торрент - 114 раз, раздача полностью - 8 раз
Размер: 694 MB
Оценка:  - (Голосов: 0)
Поблагодарили: 4
Поделиться ссылкой на эту раздачу с друзьями:
В контактеFacebookОдноклассникиTwitterLivejournalМой МирLiveinternet
 

 

leon030982

[] 

ag не плохой сюжет для современного 3-дэ римейка ag как это никто еще не взял на вооружение ab а то все штампуют одно и то же про атаки на белый дом ag
 

deadmauVlad

[] 

ag
 
Показать сообщения:    


Вы не можете начинать темы
Вы не можете отвечать на сообщения
Вы не можете редактировать свои сообщения
Вы не можете удалять свои сообщения
Вы не можете голосовать в опросах
Вы не можете прикреплять файлы к сообщениям
Вы можете скачивать файлы