Loading...
Error

Скачать Кидалы / The Grifters (Стивен Фрирз) [1990, триллер, драма, криминал, BDRip-AVC] [MVO] + [AVO] торрент без регистрации

 
Статистика раздачи
Размер:  2,18 GB   |    Скачан:  111 раз
Сидов:  1  [  0 KB/s  ]  
 
Автор Сообщение

leon030982

[] 

Кидалы / The Grifters



Год выпуска: 1990
Страна: США
Жанр: триллер, драма, криминал
Продолжительность: 01:50:41
Перевод №1: Профессиональный (многоголосный)
Перевод №2: Авторский (одноголосный)[А.Михалев]
Оригинальная дорожка: английский

Режиссер: Стивен Фрирз

В ролях: Анжелика Хьюстон, Джон Кьюсак, Аннетт Бенинг, Жан Манро, Роберт Вимс, Стивен Тоболовски, Джимми Нунан, Ричард Холден, Генри Джонс, Майкл Ласкин


Сюжет фильма: Искусные аферисты зарабатывают на жизнь в строгом соответствии со своей «специализацией». Изящная, сексапильная Майра хочет заполучить себе в партнеры Роя и вместе с ним оттачивать мастерство аферы. Опытная Лилли, прошедшая огонь, воду и медные трубы, также имеет виды на Роя. Кто из соперниц победит в борьбе, в которой на карте поставлено все, включая их жизни?




Видео: кодек: x264, размер кадра: 1024x554, битрейт: 2056 кб/с, bit/pixel: 0.151
Аудио #1: язык: Русский , перевод: многоголосый закадровый, кодек: AC3 5.1, битрейт: 384.00 кб/с
Аудио #2: язык: Русский , перевод: одноголосный закадровый (А. Михалёв), кодек: AC3 2.0, битрейт: 192.00 кб/с
Аудио #3: язык: Английский , перевод: оригинал, кодек: AC3 2.0, битрейт: 192.00 кб/с
Субтитры: тип: вшитые отключаемые, формат: SRT, язык: Русский, Английский
Общее
Уникальный идентификатор : 233430030857423197949446431000983902125 (0xAF9CFD172AD3790B966A863A543217AD)
Полное имя : D:The Grifters.1990.BDRip-AVC.PT.mkv
Формат : Matroska
Версия формата : Version 2
Размер файла : 2,18 Гбайт
Продолжительность : 1 ч. 50 м.
Общий поток : 2824 Кбит/сек
Название фильма : Кидалы / The Grifters (1990) BDRip-AVC
Дата кодирования : UTC 2012-02-07 10:47:30
Программа кодирования : mkvmerge v5.2.1 ('A Far Off Place') built on Jan 2 2012 23:21:10
Библиотека кодирования : libebml v1.2.3 + libmatroska v1.3.0

Видео
Идентификатор : 1
Формат : AVC
Формат/Информация : Advanced Video Codec
Профиль формата : High@L4.1
Параметр CABAC формата : Да
Параметр ReFrames формата : 10 кадров
Идентификатор кодека : V_MPEG4/ISO/AVC
Продолжительность : 1 ч. 50 м.
Битрейт : 2056 Кбит/сек
Ширина : 1024 пикселя
Высота : 554 пикселя
Соотношение сторон : 16:9
Частота кадров : 23,976 кадра/сек
Цветовое пространство : YUV
Субдискретизация насыщенности : 4:2:0
Битовая глубина : 8 бит
Тип развёртки : Прогрессивная
Бит/(Пиксели*Кадры) : 0.151
Размер потока : 1,55 Гбайт (71%)
Библиотека кодирования : x264 core 120 r2146 bcd41db
Настройки программы : cabac=1 / ref=10 / deblock=1:-3:-3 / analyse=0x3:0x113 / me=umh / subme=9 / psy=1 / psy_rd=1.00:0.00 / mixed_ref=1 / me_range=32 / chroma_me=1 / trellis=2 / 8x8dct=1 / cqm=0 / deadzone=21,11 / fast_pskip=1 / chroma_qp_offset=-2 / threads=3 / sliced_threads=0 / nr=0 / decimate=1 / interlaced=0 / bluray_compat=0 / constrained_intra=0 / bframes=12 / b_pyramid=2 / b_adapt=1 / b_bias=0 / direct=3 / weightb=1 / open_gop=0 / weightp=2 / keyint=240 / keyint_min=23 / scenecut=40 / intra_refresh=0 / rc=2pass / mbtree=0 / bitrate=2056 / ratetol=1.0 / qcomp=0.60 / qpmin=10 / qpmax=51 / qpstep=4 / cplxblur=20.0 / qblur=0.5 / ip_ratio=1.40 / pb_ratio=1.30 / aq=1:1.00
Default : Да
Forced : Нет

Аудио #1
Идентификатор : 2
Формат : AC-3
Формат/Информация : Audio Coding 3
Расширение режима : CM (complete main)
Идентификатор кодека : A_AC3
Продолжительность : 1 ч. 50 м.
Вид битрейта : Постоянный
Битрейт : 384 Кбит/сек
Каналы : 6 каналов
Расположение каналов : Front: L C R, Side: L R, LFE
Частота : 48,0 КГц
Битовая глубина : 16 бит
Метод сжатия : С потерями
Размер потока : 304 Мбайт (14%)
Заголовок : Многоголосый закадровый
Язык : Russian
Default : Да
Forced : Нет

Аудио #2
Идентификатор : 3
Формат : AC-3
Формат/Информация : Audio Coding 3
Расширение режима : CM (complete main)
Идентификатор кодека : A_AC3
Продолжительность : 1 ч. 50 м.
Вид битрейта : Постоянный
Битрейт : 192 Кбит/сек
Каналы : 2 канала
Расположение каналов : Front: L R
Частота : 48,0 КГц
Битовая глубина : 16 бит
Метод сжатия : С потерями
Размер потока : 152 Мбайт (7%)
Заголовок : А. Михалев
Язык : Russian
Default : Нет
Forced : Нет

Аудио #3
Идентификатор : 4
Формат : AC-3
Формат/Информация : Audio Coding 3
Расширение режима : CM (complete main)
Идентификатор кодека : A_AC3
Продолжительность : 1 ч. 50 м.
Вид битрейта : Постоянный
Битрейт : 192 Кбит/сек
Каналы : 2 канала
Расположение каналов : Front: L R
Частота : 48,0 КГц
Битовая глубина : 16 бит
Метод сжатия : С потерями
Размер потока : 152 Мбайт (7%)
Заголовок : Оригинал
Язык : English
Default : Нет
Forced : Нет

Текст #1
Идентификатор : 5
Формат : UTF-8
Идентификатор кодека : S_TEXT/UTF8
Идентификатор кодека/Информация : UTF-8 Plain Text
Язык : Russian
Default : Нет
Forced : Нет

Текст #2
Идентификатор : 6
Формат : UTF-8
Идентификатор кодека : S_TEXT/UTF8
Идентификатор кодека/Информация : UTF-8 Plain Text
Язык : English
Default : Нет
Forced : Нет

Меню
00:00:00.000 : en:Chapter 1
00:09:58.847 : en:Chapter 2
00:23:26.154 : en:Chapter 3
00:34:14.761 : en:Chapter 4
00:43:18.304 : en:Chapter 5
00:53:50.185 : en:Chapter 6
01:04:06.676 : en:Chapter 7
01:10:33.354 : en:Chapter 8
01:18:10.227 : en:Chapter 9
01:27:05.595 : en:Chapter 10
01:33:25.600 : en:Chapter 11
01:45:37.789 : en:Chapter 12



Скачать Кидалы.The.Grifters.(Стивен.Фрирз).[1990.триллер.драма.криминал.BDRip-AVC].[MVO].+.[AVO].torrent без регистрации
Золото ЗОЛОТАЯ РАЗДАЧА! СКАЧАННОЕ НЕ ЗАСЧИТЫВАЕТСЯ! Золото
Дата: Зарегистрирован   [ Тип: внутренний ] Как тут cкачать?
MAGNET ссылка
MAGNET ссылка


Скачать .torrent

11 KB

Статус: проверено DHT
Скачан: торрент - 111 раз, раздача полностью - 22 раз
Размер: 2,18 GB
Оценка:  5 (Голосов: 1)
Поблагодарили: 1
Поделиться ссылкой на эту раздачу с друзьями:
В контактеFacebookОдноклассникиTwitterLivejournalМой МирLiveinternet
 

 
Показать сообщения:    


Вы не можете начинать темы
Вы не можете отвечать на сообщения
Вы не можете редактировать свои сообщения
Вы не можете удалять свои сообщения
Вы не можете голосовать в опросах
Вы не можете прикреплять файлы к сообщениям
Вы можете скачивать файлы