Loading...
Error

Скачать Теория Большого Взрыва / The Big Bang Theory (Полный 7-ой сезон) [2013, комедия, HDTVRip] [720p] [AVO] [Кураж-Бамбей] торрент без регистрации

Страницы:  1, 2  След.

 
Статистика раздачи
Размер:  13,11 GB   |    Скачан:  5421 раз
Сидов:  1  [  0 KB/s  ]  
 
Автор Сообщение

leon030982

[] 



Теория Большого Взрыва
The Big Bang Theory


Год выпуска: 2013
Выпущено: США
Жанр: комедия
Продолжительность: ~00:21:00
Перевод: Профессиональный (одноголосый, закадровый) [Кураж-Бамбей]
субтитры: русские [NotaBenoid]

Режиссер: Марк Сендроуски

В ролях: Джонни Галекки, Джим Парсонс, Кейли Куоко, Саймон Хельберг, Кунал Найяр

Описание: Два блестящих физика, Леонард и Шелдон, «великие умы», которые понимают как «работает вселенная». Но их гениальность ничуть не помогает им общаться с людьми, особенно с женщинами. Всё начинает меняться, когда напротив них поселяется красавица Пенни.
Когда Леонард и Шелдон встречают Пенни, Леонард сразу же начинает интересоваться ею. Он видит в общении с Пенни огромную перспективу вплоть до любви, однако Шелдон понимает, что мечтам его друга не суждено сбыться.
Стоит также отметить пару странных друзей этих физиков: Воловиц, который любит употреблять фразы на разных языках, включая русский, и Раджеш Кутраппали, теряющий дар речи при виде женщин.



Качество: HDTVRip (720p)
Формат: MKV
Видео кодек: h.264
Аудио кодек: MP3
Видео: MPEG-4 AVC, ~ 3500 Кбит/с, 1280x720, 23,976 кадра/сек, 0.160 Бит/(Пиксели*Кадры)
Аудио 1: Русский: 48 kHz, AC-3, 2 ch, ~192.00 kbps avg | Кураж-Бамбей
Аудио 2: Английский: 48 kHz, AC-3, 6 ch, ~384.00 kbps avg
Автор рипа -- nb92
Перевод: Кураж-Бамбей
Субтитры: Notabenoid
Общее
Уникальный идентификатор : 189657625212293217032710809736608167866 (0x8EAEBADE83393FA994CB1BA8C48B37BA)
Полное имя : E:\TBBT_S07_KB\TBBT.S07E01.HDTVRip.720p.mkv
Формат : Matroska
Версия формата : Version 2
Размер файла : 651 Мбайт
Продолжительность : 21 м.
Общий поток : 4201 Кбит/сек
Дата кодирования : UTC 2013-09-30 07:32:02
Программа кодирования : mkvmerge v6.4.1 ('Omega Point') built on Sep 16 2013 22:05:10
Библиотека кодирования : libebml v1.3.0 + libmatroska v1.4.1

Видео
Идентификатор : 1
Формат : AVC
Формат/Информация : Advanced Video Codec
Профиль формата : High@L4.1
Параметр CABAC формата : Да
Параметр ReFrames формата : 8 кадров
Идентификатор кодека : V_MPEG4/ISO/AVC
Продолжительность : 21 м.
Битрейт : 3542 Кбит/сек
Ширина : 1280 пикселей
Высота : 720 пикселей
Соотношение сторон : 16:9
Режим частоты кадров : Постоянный
Частота кадров : 23,976 кадра/сек
Цветовое пространство : YUV
Субдискретизация насыщенности : 4:2:0
Битовая глубина : 8 бит
Тип развёртки : Прогрессивная
Бит/(Пиксели*Кадры) : 0.160
Размер потока : 549 Мбайт (84%)
Библиотека кодирования : x264 core 138 r2358 9e941d1
Настройки программы : cabac=1 / ref=8 / deblock=1:-2:-2 / analyse=0x3:0x113 / me=umh / subme=9 / psy=1 / psy_rd=1.00:0.00 / mixed_ref=1 / me_range=24 / chroma_me=1 / trellis=1 / 8x8dct=1 / cqm=0 / deadzone=21,11 / fast_pskip=0 / chroma_qp_offset=-2 / threads=18 / lookahead_threads=2 / sliced_threads=0 / nr=0 / decimate=1 / interlaced=0 / bluray_compat=0 / constrained_intra=0 / bframes=5 / b_pyramid=2 / b_adapt=2 / b_bias=0 / direct=3 / weightb=1 / open_gop=0 / weightp=2 / keyint=250 / keyint_min=23 / scenecut=40 / intra_refresh=0 / rc_lookahead=50 / rc=crf / mbtree=1 / crf=18.0 / qcomp=0.60 / qpmin=0 / qpmax=69 / qpstep=4 / ip_ratio=1.40 / aq=1:1.00
Язык : English
Default : Да
Forced : Нет

Аудио #1
Идентификатор : 2
Формат : AC-3
Формат/Информация : Audio Coding 3
Расширение режима : CM (complete main)
Параметр Endianness формата : Big
Идентификатор кодека : A_AC3
Продолжительность : 21 м.
Вид битрейта : Постоянный
Битрейт : 192 Кбит/сек
Каналы : 2 канала
Расположение каналов : Front: L R
Частота : 48,0 КГц
Битовая глубина : 16 бит
Метод сжатия : С потерями
Размер потока : 29,7 Мбайт (5%)
Заголовок : Kuraj-Bambey
Язык : Russian
Default : Да
Forced : Нет

Аудио #2
Идентификатор : 3
Формат : AC-3
Формат/Информация : Audio Coding 3
Расширение режима : CM (complete main)
Параметр Endianness формата : Big
Идентификатор кодека : A_AC3
Продолжительность : 21 м.
Вид битрейта : Постоянный
Битрейт : 384 Кбит/сек
Каналы : 6 каналов
Расположение каналов : Front: L C R, Side: L R, LFE
Частота : 48,0 КГц
Битовая глубина : 16 бит
Метод сжатия : С потерями
Задержка видео : 64 мс.
Размер потока : 59,5 Мбайт (9%)
Заголовок : Original
Язык : English
Default : Нет
Forced : Нет

Текст #1
Идентификатор : 4
Формат : UTF-8
Идентификатор кодека : S_TEXT/UTF8
Идентификатор кодека/Информация : UTF-8 Plain Text
Заголовок : Notabenoid
Язык : Russian
Default : Нет
Forced : Нет

Текст #2
Идентификатор : 5
Формат : UTF-8
Идентификатор кодека : S_TEXT/UTF8
Идентификатор кодека/Информация : UTF-8 Plain Text
Заголовок : Addic7ed
Язык : English
Default : Нет
Forced : Нет
Внимание! Раздача ведётся путём добавления новых серий; при каждом добавлении создётся новый торрент. Чтобы начать докачку новой серии, пользователям необходимо сделать следующее:
(1) остановить скачивание,
(2) удалить старый торрент у себя из клиента (старые серии удалять не надо),
(3) скачать новый торрент и запустить его у себя в клиенте вместо старого, при этом указать клиенту путь в старую папку куда и должно происходить скачивание новых серий.
Ваш клиент при этом должен произвести хеширование (проверку) старой папки (если не производит сам - помогите ему сделать это), и будет докачивать только те серии которых у вас ещё нет. Старые серии при этом не удаляются, а продолжают раздаваться!
Eсли вы уже удалили старые серии, то предотвратить повторную закачку старых серий можно, отжав галочку в соответсвующих местах при запуске нового торрента. По возможности, желательно не удалять старые серии как можно дольше чтобы релизёр не столько продолжал раздавать старые серии, а смог сконцентрироваться на новых.



Скачать Теория.Большого.Взрыва.The.Big.Bang.Theory.(Полный.7-ой.сезон).[2013.комедия.HDTVRip].[720p].[AVO].[Кураж-Бамбей].torrent без регистрации
Золото ЗОЛОТАЯ РАЗДАЧА! СКАЧАННОЕ НЕ ЗАСЧИТЫВАЕТСЯ! Золото
Дата: Зарегистрирован   [ Тип: внутренний ] Как тут cкачать?
MAGNET ссылка
MAGNET ссылка


Скачать .torrent

35 KB

Статус: проверено DHT
Скачан: торрент - 5421 раз, раздача полностью - 690 раз
Размер: 13,11 GB
Оценка:  5 (Голосов: 13)
Поблагодарили: 24
Поделиться ссылкой на эту раздачу с друзьями:
В контактеFacebookОдноклассникиTwitterLivejournalМой МирLiveinternet
 

 

leon030982

[] 

добавлена 3-я серия ag
 

leon030982

[] 

обновлено az
 

leon030982

[] 

5-я серия ag
 

leon030982

[] 

6-я серия ag
 

leon030982

[] 

7-я серия
 

leon030982

[] 

8-я серия az
 

mORFEY333

[] 

Леон, в другом переводе уже 9-ая есть....поговори с Кураж-Бамбеем, пусть поднажмёт..)))
 

mORFEY333

[] 

не знаю, может я качнул плохо..но 8 серия не до конца...виснет и вырубается...
 

leon030982

[] 

9-я серия az
 

leon030982

[] 

9-я серия это что то ag
Шелдон мочит ag ag ag
 

leon030982

[] 

10-я серия
 

leon030982

[] 

11-я серия az
 

leon030982

[] 

12-я серия az всех С Рождеством az
 

leon030982

[] 

13-я серия az ag
 
Показать сообщения:    


Вы не можете начинать темы
Вы не можете отвечать на сообщения
Вы не можете редактировать свои сообщения
Вы не можете удалять свои сообщения
Вы не можете голосовать в опросах
Вы не можете прикреплять файлы к сообщениям
Вы можете скачивать файлы