Loading...
Error

Скачать Анатомия страсти / Анатомия Грей / Grey's Anatomy (сезоны 01-12) (Роб Корн) [2005-2015, драма, мелодрама, WEB-DLRip] [MVO (CTC, Fox Life)] торрент без регистрации

 
Статистика раздачи
Размер:  179,84 GB   |    Скачан:  3735 раз
Сидов:  1  [  0 KB/s  ]  
 
Автор Сообщение

МихаНЕзатор

[] 




Анатомия Грей / Анатомия страсти / Grey's Anatomy

Год выпуска: 2005
Страна: США
Жанр: драма, мелодрама
Режиссёр: Роб Корн, Тони Фелан, Чандра Уилсон

В ролях: Патрик Демпси, Эллен Помпео, Сандра О, Джастин Чэмберс, Чандра Уилсон, Джеймс Пикенс мл., Эрик Дэйн, Кэтрин Хайгл, Сара Рамирес, Кевин МакКидд

Описание: В центре событий – молодая женщина-хирург по имени Мередит Грей. Она и ее коллеги, такие же начинающие врачи, работают в городской больнице Seattle Grace, в Сиэтле. Интерны-первогодки, закончившие с отличием Гарвард, проходят самую жесткую программу обучения. Мередит Грей, Кристина Янг, Иззи Стивенс, Джордж О’Мэлли и Алекс Карев - еще вчера они были студентами. Сегодня они врачи, и в мире, где их знания решают вопрос жизни и смерти, они лавируют между победами и неудачами в личной жизни. Интернов ведет команда докторов-мастадонтов, которые намерены сломать их, или сделать из бывших студентов первоклассных специалистов. Миранда Бэйли, старший врач, ответственный за программу интернов, обладает настолько жестким нравом, что ее называют «нацистом». Дерек Шепард - симпатичный, и очень талантливый хирург, который поддерживает запретную, но явную сексуальную связь с Мередит. Самоуверенность Престона Берка – вторая отличительная черта после его великолепного умения владеть скальпелем. И за всем этим отечески наблюдает сугубо деловой главный врач Ричард Вебер. Интерны понимают, чтобы справится со своей работой, им потребуются не только знания медицины. Молодые будущие врачи учатся и влюбляются, заводят истории болезни и служебные романы, хранят свои и чужие врачебные тайны. И зачастую отношения с противоположным полом волнуют их не меньше, чем вопрос приобретения профессионального опыта.



Продолжительность: 00:41:33
Перевод: Профессиональный (многоголосый, закадровый) - СТС
Перевод: Профессиональный (дублированный) - Пифагор
Перевод: Профессиональный (многоголосый, закадровый) - Fox Life

Качество: WEB-DLRip - 1-3, 6-12 сезоны
Качество: BDRip - 4 сезон (1-7, 9-13 серии), 5 сезон (1-18, 20-24)
Качество: HDTVRip - 4 сезон (8, 14-17 серии), 5 сезон (19 серия)
Формат: AVI
Видео: 704x400 (1.76:1), 25/23.976 fps, XviD build 73 ~1999 kbps avg, 0.28 bit/pixel
Аудио: 48 kHz, AC3 Dolby Digital, 2/0 (L,R) ch, ~192 kbps - СТС (1-3 сезоны)
Аудио: 48 kHz, AC3 Dolby Digital, 2/0 (L,R) ch, ~192 kbps - Пифагор (1 сезон)
Аудио: 48 kHz, AC3 Dolby Digital, 2/0 (L,R) ch, ~192 kbps - Fox (4-12 сезоны)
Субтитры: отсутствуют

АНОНСЫ ПОПУЛЯРНЫХ РАЗДАЧ


Торрент обновлён, улучшен видеоряд, добавлен 12-й сезон!
1 сезон
Общее
Полное имя : H:\Торрент отдачи 5\Grey's.Anatomy.web-dlrip_[teko]\Season_01\s01e01_A.Hard.Day's.Night.avi
Формат : AVI
Формат/Информация : Audio Video Interleave
Размер файла : 713 Мбайт
Продолжительность : 41 м.
Общий поток : 2398 Кбит/сек
Программа кодирования : VirtualDubMod 1.5.10.3 | www.virtualdub-fr.org || (build 2550/release)
Библиотека кодирования : VirtualDubMod build 2550/release
Видео
Идентификатор : 0
Формат : MPEG-4 Visual
Профиль формата : Advanced Simple@L5
Параметр BVOP формата : 1
Параметр QPel формата : Нет
Параметр GMC формата : Без точки перехода
Параметр матрицы формата : Выборочная
Идентификатор кодека : XVID
Идентификатор кодека/Подсказка : XviD
Продолжительность : 41 м.
Битрейт : 2000 Кбит/сек
Ширина : 704 пикселя
Высота : 400 пикселей
Соотношение сторон : 16:9
Частота кадров : 25,000 кадров/сек
Цветовое пространство : YUV
Субдискретизация насыщенности : 4:2:0
Битовая глубина : 8 бит
Тип развёртки : Прогрессивная
Метод сжатия : С потерями
Бит/(Пиксели*Кадры) : 0.284
Размер потока : 594 Мбайт (83%)
Библиотека кодирования : XviD 73
Аудио #1
Идентификатор : 1
Формат : AC-3
Формат/Информация : Audio Coding 3
Расширение режима : CM (complete main)
Параметр Endianness формата : Big
Идентификатор кодека : 2000
Продолжительность : 41 м.
Вид битрейта : Постоянный
Битрейт : 192 Кбит/сек
Каналы : 2 канала
Расположение каналов : Front: L R
Частота : 48,0 КГц
Битовая глубина : 16 бит
Метод сжатия : С потерями
Размер потока : 57,0 Мбайт (8%)
Выравнивание : Разделение по промежуткам
Продолжительность промежутка : 40 мс. (1,00 видеокадр)
Время предзагрузки промежутка : 500 мс.
Аудио #2
Идентификатор : 2
Формат : AC-3
Формат/Информация : Audio Coding 3
Расширение режима : CM (complete main)
Параметр Endianness формата : Big
Идентификатор кодека : 2000
Продолжительность : 41 м.
Вид битрейта : Постоянный
Битрейт : 192 Кбит/сек
Каналы : 2 канала
Расположение каналов : Front: L R
Частота : 48,0 КГц
Битовая глубина : 16 бит
Метод сжатия : С потерями
Размер потока : 57,0 Мбайт (8%)
Выравнивание : Разделение по промежуткам
Продолжительность промежутка : 40 мс. (1,00 видеокадр)
Время предзагрузки промежутка : 500 мс.
4 сезон BDRip
Общее
Полное имя : H:\Торрент отдачи 5\Grey's.Anatomy.web-dlrip_[teko]\Season_04\s04e01_A.Change.Is.Gonna.Come.avi
Формат : AVI
Формат/Информация : Audio Video Interleave
Размер файла : 678 Мбайт
Продолжительность : 43 м.
Общий поток : 2201 Кбит/сек
Программа кодирования : VirtualDubMod 1.5.10.3 | www.virtualdub-fr.org || (build 2550/release)
Библиотека кодирования : VirtualDubMod build 2550/release
Видео
Идентификатор : 0
Формат : MPEG-4 Visual
Профиль формата : Advanced Simple@L5
Параметр BVOP формата : 1
Параметр QPel формата : Нет
Параметр GMC формата : Без точки перехода
Параметр матрицы формата : Выборочная
Идентификатор кодека : XVID
Идентификатор кодека/Подсказка : XviD
Продолжительность : 43 м.
Битрейт : 2000 Кбит/сек
Ширина : 704 пикселя
Высота : 400 пикселей
Соотношение сторон : 16:9
Частота кадров : 23,976 кадра/сек
Цветовое пространство : YUV
Субдискретизация насыщенности : 4:2:0
Битовая глубина : 8 бит
Тип развёртки : Прогрессивная
Метод сжатия : С потерями
Бит/(Пиксели*Кадры) : 0.296
Размер потока : 616 Мбайт (91%)
Библиотека кодирования : XviD 73
Аудио
Идентификатор : 1
Формат : AC-3
Формат/Информация : Audio Coding 3
Расширение режима : CM (complete main)
Параметр Endianness формата : Big
Идентификатор кодека : 2000
Продолжительность : 43 м.
Вид битрейта : Постоянный
Битрейт : 192 Кбит/сек
Каналы : 2 канала
Расположение каналов : Front: L R
Частота : 48,0 КГц
Битовая глубина : 16 бит
Метод сжатия : С потерями
Размер потока : 59,1 Мбайт (9%)
Выравнивание : Разделение по промежуткам
Продолжительность промежутка : 42 мс. (1,00 видеокадр)
Время предзагрузки промежутка : 500 мс.
4 сезон HDTVRip
Общее
Полное имя : H:\Торрент отдачи 5\Grey's.Anatomy.web-dlrip_[teko]\Season_04\s04e08_Forever.Young.avi
Формат : AVI
Формат/Информация : Audio Video Interleave
Размер файла : 664 Мбайт
Продолжительность : 42 м.
Общий поток : 2201 Кбит/сек
Программа кодирования : VirtualDubMod 1.5.10.3 | www.virtualdub-fr.org || (build 2550/release)
Библиотека кодирования : VirtualDubMod build 2550/release
Видео
Идентификатор : 0
Формат : MPEG-4 Visual
Профиль формата : Advanced Simple@L5
Параметр BVOP формата : 1
Параметр QPel формата : Нет
Параметр GMC формата : Без точки перехода
Параметр матрицы формата : Выборочная
Идентификатор кодека : XVID
Идентификатор кодека/Подсказка : XviD
Продолжительность : 42 м.
Битрейт : 2000 Кбит/сек
Ширина : 704 пикселя
Высота : 400 пикселей
Соотношение сторон : 16:9
Частота кадров : 23,976 кадра/сек
Цветовое пространство : YUV
Субдискретизация насыщенности : 4:2:0
Битовая глубина : 8 бит
Тип развёртки : Прогрессивная
Метод сжатия : С потерями
Бит/(Пиксели*Кадры) : 0.296
Размер потока : 603 Мбайт (91%)
Библиотека кодирования : XviD 73
Аудио
Идентификатор : 1
Формат : AC-3
Формат/Информация : Audio Coding 3
Расширение режима : CM (complete main)
Параметр Endianness формата : Big
Идентификатор кодека : 2000
Продолжительность : 42 м.
Вид битрейта : Постоянный
Битрейт : 192 Кбит/сек
Каналы : 2 канала
Расположение каналов : Front: L R
Частота : 48,0 КГц
Битовая глубина : 16 бит
Метод сжатия : С потерями
Размер потока : 57,9 Мбайт (9%)
Выравнивание : Разделение по промежуткам
Продолжительность промежутка : 42 мс. (1,00 видеокадр)
Время предзагрузки промежутка : 500 мс.



Скачать Анатомия.страсти.Анатомия.Грей.Grey's.Anatomy.(сезоны.01-12).(Роб.Корн).[2005-2015.драма.мелодрама.WEB-DLRip].[MVO.(CTC.Fox.Life)].torrent без регистрации
Золото ЗОЛОТАЯ РАЗДАЧА! СКАЧАННОЕ НЕ ЗАСЧИТЫВАЕТСЯ! Золото
Дата: Зарегистрирован   [ Тип: внутренний ] Как тут cкачать?
MAGNET ссылка
MAGNET ссылка


Скачать .torrent

919 KB

Статус: проверено DHT
Скачан: торрент - 3735 раз, раздача полностью - 0 раз
Размер: 179,84 GB
Оценка:  5 (Голосов: 1)
Поблагодарили: 2
Поделиться ссылкой на эту раздачу с друзьями:
В контактеFacebookОдноклассникиTwitterLivejournalМой МирLiveinternet
 

 
Показать сообщения:    


Вы не можете начинать темы
Вы не можете отвечать на сообщения
Вы не можете редактировать свои сообщения
Вы не можете удалять свои сообщения
Вы не можете голосовать в опросах
Вы не можете прикреплять файлы к сообщениям
Вы можете скачивать файлы