Loading...
Error

Скачать Как выйти замуж за миллионера / How to marry a millionaire (Жан Негулеско / Jean Negulesco) [1953, комедия, BDRip-AVC] [Dub] (Дубляж) + [Original Eng] торрент без регистрации

 
Статистика раздачи
Размер:  3,21 GB   |    Скачан:  104 раза
Сидов:  1  [  0 KB/s  ]  
 
Автор Сообщение

leon030982

[] 

Как выйти замуж за миллионера / How to marry a millionaire

Страна: США
Жанр: комедия
Год выпуска: 1953
Продолжительность: 1:35:46
Перевод: Профессиональный (дублированный)
Оригинальная аудиодорожка: английский
Cубтитры: нет
Режиссер: Жан Негулеско / Jean Negulesco
В ролях: Бетти Грэйбл, Мэрилин Монро, Лорен Бэколл, Дэвид Уэйн, Рори Кэлхун, Кэмерон Митчелл, Александр Д’Арси, Фред Кларк, Уильям Пауэлл, Джордж Данн

Описание: Три модели-блондинки ищут мужей-миллионеров. Для осуществления своих планов девушки снимают шикарную квартиру в престижном районе и начинают осуществлять задуманное. Проходят три месяца - из квартиры продана последняя мебель, а на горизонте - ни одной подходящей партии. К финалу картины страсти накаляются, у двух подруг возникает дилемма: деньги или любовь? Лишь у третьей, на первый взгляд, все складывается хорошо. Но это лишь - на первый взгляд.
| Sample | Kinopoisk
Качество видео: BDRip-AVC
Формат видео: MKV
Видео: x264 (High@L4.1); 1144х448; Display aspect ratio: 2.554:1, 23.976 fps, 3895 Kbps
Аудио 1: Русский: AC-3; 16 bit 48 Khz; 6ch 448 Kbps; CBR | Дубляж, Blu-ray CEE
Аудио 2: Английский: AC-3; 16 bit 48 Khz; 6ch 448 Kbps; CBR | отдельно

avs [info]: 1144x448p 1:1 @ 24000/1001 fps (cfr)
x264 [info]: using SAR=1/1
x264 [info]: using cpu capabilities: MMX2 SSE2Fast SSSE3 SSE4.2
x264 [info]: profile High, level 4.1
x264 [info]: frame I:653 Avg QP:16.06 size:110583
x264 [info]: frame P:27091 Avg QP:18.65 size: 46721
x264 [info]: frame B:110032 Avg QP:20.92 size: 13268
x264 [info]: consecutive B-frames: 0.7% 1.1% 2.9% 18.7% 22.4% 46.0% 5.1% 1.8% 0.8% 0.6%
x264 [info]: mb I I16..4: 2.3% 73.7% 23.9%
x264 [info]: mb P I16..4: 0.2% 9.6% 0.8% P16..4: 28.6% 38.5% 21.8% 0.0% 0.0% skip: 0.5%
x264 [info]: mb B I16..4: 0.0% 2.2% 0.1% B16..8: 29.3% 18.6% 4.9% direct: 9.4% skip:35.6% L0:37.5% L1:38.8% BI:23.7%
x264 [info]: 8x8 transform intra:91.0% inter:56.1%
x264 [info]: direct mvs spatial:98.2% temporal:1.8%
x264 [info]: coded y,uvDC,uvAC intra: 97.7% 65.5% 34.5% inter: 39.0% 22.8% 8.5%
x264 [info]: i16 v,h,dc,p: 61% 9% 7% 23%
x264 [info]: i8 v,h,dc,ddl,ddr,vr,hd,vl,hu: 10% 9% 14% 9% 12% 11% 13% 10% 13%
x264 [info]: i4 v,h,dc,ddl,ddr,vr,hd,vl,hu: 13% 11% 3% 8% 14% 13% 14% 11% 12%
x264 [info]: i8c dc,h,v,p: 32% 31% 23% 14%
x264 [info]: Weighted P-Frames: Y:10.3% UV:5.2%
x264 [info]: ref P L0: 36.1% 12.7% 19.3% 5.1% 5.5% 3.3% 4.1% 1.8% 2.4% 1.5% 2.0% 1.3% 1.8% 1.2% 1.7% 0.1%
x264 [info]: ref B L0: 77.5% 11.3% 3.2% 1.7% 1.2% 1.1% 0.9% 0.6% 0.5% 0.4% 0.3% 0.3% 0.2% 0.1%
x264 [info]: ref B L1: 95.4% 4.6%
x264 [info]: kb/s:3895.04
x264 [total]: encoded 137776 frames, 8.71 fps, 3895.04 kb/s

General
Unique ID : 232980132087334749121750469502074023534 (0xAF46575E59CEDB20A560432B9446EE6E)
Complete name : Как выйти замуж за миллионера.1953.BDRip.mkv
Format : Matroska
Format version : Version 2
File size : 2.91 GiB
Duration : 1h 35mn
Overall bit rate : 4 345 Kbps
Movie name : «Как выйти замуж за миллионера / How to marry a millionaire»
Encoded date : UTC 2013-09-28 19:07:41
Writing application : mkvmerge v5.8.0 ('No Sleep / Pillow') built on Sep 2 2012 15:37:04
Writing library : libebml v1.2.3 + libmatroska v1.3.0
Comment : BDRip-AVC
Original date released : September 28th 2013
Encoded by : imgeorgest®
Video
ID : 1
Format : AVC
Format/Info : Advanced Video Codec
Format profile : High@L4.1
Format settings, CABAC : Yes
Format settings, ReFrames : 15 frames
Codec ID : V_MPEG4/ISO/AVC
Duration : 1h 35mn
Bit rate : 3 895 Kbps
Width : 1 144 pixels
Height : 448 pixels
Display aspect ratio : 2.554
Frame rate : 23.976 fps
Color space : YUV
Chroma subsampling : 4:2:0
Bit depth : 8 bits
Scan type : Progressive
Bits/(Pixel*Frame) : 0.317
Stream size : 2.55 GiB (88%)
Title : Как выйти замуж за миллионера / How to marry a millionaire.1953
Writing library : x264 core 130 r2273 b3065e6
Encoding settings : cabac=1 / ref=15 / deblock=1:-2:-2 / analyse=0x3:0x113 / me=umh / subme=11 / psy=1 / psy_rd=0.80:0.00 / mixed_ref=1 / me_range=48 / chroma_me=1 / trellis=2 / 8x8dct=1 / cqm=0 / deadzone=21,11 / fast_pskip=0 / chroma_qp_offset=-2 / threads=12 / lookahead_threads=2 / sliced_threads=0 / nr=0 / decimate=0 / interlaced=0 / bluray_compat=0 / constrained_intra=0 / bframes=9 / b_pyramid=2 / b_adapt=2 / b_bias=0 / direct=3 / weightb=1 / open_gop=0 / weightp=2 / keyint=250 / keyint_min=23 / scenecut=40 / intra_refresh=0 / rc_lookahead=60 / rc=2pass / mbtree=1 / bitrate=3895 / ratetol=1.0 / qcomp=0.70 / qpmin=0 / qpmax=32 / qpstep=4 / cplxblur=20.0 / qblur=0.5 / vbv_maxrate=50000 / vbv_bufsize=62500 / nal_hrd=none / ip_ratio=1.30 / aq=1:0.90
Language : English
Default : Yes
Forced : No
Color primaries : BT.709-5, BT.1361, IEC 61966-2-4, SMPTE RP177
Transfer characteristics : BT.709-5, BT.1361
Matrix coefficients : BT.709-5, BT.1361, IEC 61966-2-4 709, SMPTE RP177
Audio
ID : 2
Format : AC-3
Format/Info : Audio Coding 3
Mode extension : CM (complete main)
Codec ID : A_AC3
Duration : 1h 35mn
Bit rate mode : Constant
Bit rate : 448 Kbps
Channel(s) : 6 channels
Channel positions : Front: L C R, Side: L R, LFE
Sampling rate : 48.0 KHz
Bit depth : 16 bits
Compression mode : Lossy
Stream size : 307 MiB (10%)
Title : AC-3; 16 bit 48 Khz; 6ch 448 Kbps; CBR | Дубляж, Blu-ray CEE
Language : Russian
Default : Yes
Forced : No



Скачать Как.выйти.замуж.за.миллионера.How.to.marry.a.millionaire.(Жан.Негулеско.Jean.Negulesco).[1953.комедия.BDRip-AVC].[Dub].(Дубляж).+.[Original.Eng].torrent без регистрации
Золото ЗОЛОТАЯ РАЗДАЧА! СКАЧАННОЕ НЕ ЗАСЧИТЫВАЕТСЯ! Золото
Дата: Зарегистрирован   [ Тип: внутренний ] Как тут cкачать?
MAGNET ссылка
MAGNET ссылка


Скачать .torrent

17 KB

Статус: проверено DHT
Скачан: торрент - 104 раз, раздача полностью - 59 раз
Размер: 3,21 GB
Оценка:  - (Голосов: 0)
Поблагодарили: 2
Поделиться ссылкой на эту раздачу с друзьями:
В контактеFacebookОдноклассникиTwitterLivejournalМой МирLiveinternet
 

 
Показать сообщения:    


Вы не можете начинать темы
Вы не можете отвечать на сообщения
Вы не можете редактировать свои сообщения
Вы не можете удалять свои сообщения
Вы не можете голосовать в опросах
Вы не можете прикреплять файлы к сообщениям
Вы можете скачивать файлы