Loading...
Error

Скачать Афера / The Sting (Джордж Рой Хилл / George Roy Hill) [1973, криминальная драма, BDRip-AVC] [Dub] + [MVO] + [AVO] (Михалев) + [Sub] (Rus, Eng) + Original (Eng) торрент без регистрации

 
Статистика раздачи
Размер:  2,24 GB   |    Скачан:  1170 раз
Сидов:  1  [  0 KB/s  ]  
 
Автор Сообщение

leon030982

[] 

Афера / The Sting

Год выпуска: 1973
Страна: США
Жанр: криминальная драма
Продолжительность: 02:09:16
Перевод 1: Профессиональный (полное дублирование)
Перевод 2: Профессиональный (многоголосый закадровый)
Перевод 3: Авторский (одноголосый закадровый) Михалев (отдельно)
Cубтитры: русские, английские
Оригинальная аудиодорожка: английский

Режиссер: Джордж Рой Хилл / George Roy Hill

В ролях: Пол Ньюман, Роберт Редфорд, Роберт Шоу, Чарльз Дёрнинг, Рей Уолстон, Айлин Бреннан, Харольд Гулд, Джон Хеффернан, Дэна Элкар, Джек Кихоу, Роберт Эрл Джонс, Сэлли Кёркленд

Описание: США, 30-е годы. Две группы ловких мошенников объединяются, чтобы кинуть одного из воротил преступного бизнеса. Одна из лучших криминальных драм в истории кино, во многом благодаря творческому союзу Пола Ньюмана и Роберта Редфорда, родившему несколько ранее другой шедевр - "Бутч Кэссиди и Санденс Кид".



Сэмпл: http://multi-up.com/906053
Качество видео: BDRip-AVC
Формат видео: MKV
Видео: 968х524 (1,77:1), 23,976 fps, AVC (H.264) ~2034 kbps avg, 0.167 bit/pixel
Аудио 1: Russian (48 KHz, AC3, 2 ch, ~192 Kbps) (дубляж)
Аудио 2: Russian (48 KHz, AAC-LC, 2 ch, ~96 Kbps) (многоголосый)
Аудио 3: English (48 KHz, AAC-LC, 2 ch, ~96 Kbps) (оригинал)
Аудио 4: Russian (48 KHz, HE-AAC, 2 ch, ~60 Kbps) (Михалев) (отдельно)
Формат субтитров: softsub (SRT)
Общее
Уникальный идентификатор : 242898305505615577751437556959453660803 (0xB6BC831286638C548D03990D05384683)
Полное имя : D:\Кино\Афера\Афера.mkv
Формат : Matroska
Версия формата : Version 2
Размер файла : 2,19 Гбайт
Продолжительность : 2 ч. 9 м.
Общий поток : 2421 Кбит/сек
Дата кодирования : UTC 2013-09-23 13:52:49
Программа кодирования : mkvmerge v4.0.0 ('The Stars were mine') сборка от Jun 6 2010 16:18:42
Библиотека кодирования : libebml v1.0.0 + libmatroska v1.0.0
Видео
Идентификатор : 1
Формат : AVC
Формат/Информация : Advanced Video Codec
Профиль формата : High@L4.1
Параметр CABAC формата : Да
Параметр ReFrames формата : 16 кадров
Идентификатор кодека : V_MPEG4/ISO/AVC
Продолжительность : 2 ч. 9 м.
Номинальный битрейт : 2034 Кбит/сек
Ширина : 968 пикселей
Высота : 524 пикселя
Соотношение сторон : 1,85:1
Режим частоты кадров : Постоянный
Частота кадров : 23,976 кадра/сек
Цветовое пространство : YUV
Субдискретизация насыщенности : 4:2:0
Битовая глубина : 8 бит
Тип развёртки : Прогрессивная
Бит/(Пиксели*Кадры) : 0.167
Библиотека кодирования : x264 core 133 r2334 a3ac64b
Настройки программы : cabac=1 / ref=16 / deblock=1:-2:-1 / analyse=0x3:0x133 / me=umh / subme=10 / psy=1 / psy_rd=1.00:0.10 / mixed_ref=1 / me_range=32 / chroma_me=1 / trellis=2 / 8x8dct=1 / cqm=0 / deadzone=21,11 / fast_pskip=0 / chroma_qp_offset=-3 / threads=3 / lookahead_threads=1 / sliced_threads=0 / nr=0 / decimate=1 / interlaced=0 / bluray_compat=0 / constrained_intra=0 / bframes=10 / b_pyramid=2 / b_adapt=2 / b_bias=0 / direct=3 / weightb=1 / open_gop=0 / weightp=2 / keyint=240 / keyint_min=23 / scenecut=40 / intra_refresh=0 / rc_lookahead=60 / rc=2pass / mbtree=1 / bitrate=2034 / ratetol=1.0 / qcomp=0.60 / qpmin=10 / qpmax=51 / qpstep=4 / cplxblur=20.0 / qblur=0.5 / vbv_maxrate=50000 / vbv_bufsize=50000 / nal_hrd=none / ip_ratio=1.40 / aq=1:1.00
Default : Нет
Forced : Нет
Аудио #1
Идентификатор : 2
Формат : AC-3
Формат/Информация : Audio Coding 3
Расширение режима : CM (complete main)
Параметр Endianness формата : Big
Идентификатор кодека : A_AC3
Продолжительность : 2 ч. 9 м.
Вид битрейта : Постоянный
Битрейт : 192 Кбит/сек
Каналы : 2 канала
Расположение каналов : Front: L R
Частота : 48,0 КГц
Битовая глубина : 16 бит
Метод сжатия : С потерями
Размер потока : 178 Мбайт (8%)
Заголовок : дубляж
Язык : Russian
Default : Да
Forced : Нет
Аудио #2
Идентификатор : 3
Формат : AAC
Формат/Информация : Advanced Audio Codec
Профиль формата : LC
Идентификатор кодека : A_AAC
Продолжительность : 2 ч. 9 м.
Каналы : 2 канала
Расположение каналов : Front: L R
Частота : 48,0 КГц
Метод сжатия : С потерями
Заголовок : многоголосый
Язык : Russian
Default : Нет
Forced : Нет
Аудио #3
Идентификатор : 4
Формат : AAC
Формат/Информация : Advanced Audio Codec
Профиль формата : LC
Идентификатор кодека : A_AAC
Продолжительность : 2 ч. 9 м.
Каналы : 2 канала
Расположение каналов : Front: L R
Частота : 48,0 КГц
Метод сжатия : С потерями
Заголовок : оригинал
Язык : English
Default : Нет
Forced : Нет
Текст #1
Идентификатор : 5
Формат : UTF-8
Идентификатор кодека : S_TEXT/UTF8
Идентификатор кодека/Информация : UTF-8 Plain Text
Язык : Russian
Default : Нет
Forced : Нет
Текст #2
Идентификатор : 6
Формат : UTF-8
Идентификатор кодека : S_TEXT/UTF8
Идентификатор кодека/Информация : UTF-8 Plain Text
Язык : English
Default : Нет
Forced : Нет
Общее
Полное имя : D:\Кино\Афера\Михалев.mp4
Формат : MPEG-4
Профиль формата : Base Media / Version 2
Идентификатор кодека : mp42
Размер файла : 56,2 Мбайт
Продолжительность : 2 ч. 9 м.
Режим общего битрейта : Переменный
Общий поток : 60,8 Кбит/сек
Дата кодирования : UTC 2013-09-23 14:29:21
Дата пометки : UTC 2013-09-23 14:33:41
Аудио
Идентификатор : 1
Формат : AAC
Формат/Информация : Advanced Audio Codec
Профиль формата : HE-AAC / LC
Идентификатор кодека : 40
Продолжительность : 2 ч. 9 м.
Вид битрейта : Переменный
Битрейт : 60,0 Кбит/сек
Максимальный битрейт : 71,7 Кбит/сек
Каналы : 2 канала
Расположение каналов : Front: L R
Частота : 48,0 КГц / 24,0 КГц
Метод сжатия : С потерями
Размер потока : 55,5 Мбайт (99%)
Библиотека кодирования : Nero AAC codec 1.5.4.0
Настройки программы : -cbr 60000 -he
Дата кодирования : UTC 2013-09-23 14:29:21
Дата пометки : UTC 2013-09-23 14:33:41
---[Information] [22.09.2013 16:13:52] avs [info]: 968x524p 1:1 @ 24000/1001 fps (cfr)
---[Information] [22.09.2013 16:13:52] x264 [info]: using SAR=1/1
---[Information] [22.09.2013 16:13:52] x264 [info]: using cpu capabilities: MMX2 SSE2Fast SSEMisalign LZCNT
---[Information] [22.09.2013 16:13:52] x264 [info]: profile High, level 4.1
---[Information] [23.09.2013 8:24:34] x264 [info]: frame I:1321 Avg QP:17.64 size: 90272
---[Information] [23.09.2013 8:24:34] x264 [info]: frame P:41168 Avg QP:20.68 size: 25725
---[Information] [23.09.2013 8:24:34] x264 [info]: frame B:143490 Avg QP:23.46 size: 5532
---[Information] [23.09.2013 8:24:34] x264 [info]: consecutive B-frames: 1.8% 2.1% 8.6% 22.8% 21.7% 40.4% 1.8% 0.3% 0.1% 0.1% 0.3%
---[Information] [23.09.2013 8:24:34] x264 [info]: mb I I16..4: 5.9% 74.6% 19.5%
---[Information] [23.09.2013 8:24:34] x264 [info]: mb P I16..4: 0.7% 5.8% 0.9% P16..4: 43.2% 23.8% 19.9% 0.6% 0.2% skip: 4.8%
---[Information] [23.09.2013 8:24:34] x264 [info]: mb B I16..4: 0.0% 0.4% 0.1% B16..8: 38.1% 7.6% 2.2% direct: 4.4% skip:47.3% L0:43.6% L1:45.2% BI:11.2%
---[Information] [23.09.2013 8:24:34] x264 [info]: 8x8 transform intra:78.1% inter:63.8%
---[Information] [23.09.2013 8:24:34] x264 [info]: direct mvs spatial:98.8% temporal:1.2%
---[Information] [23.09.2013 8:24:34] x264 [info]: coded y,uvDC,uvAC intra: 87.5% 82.0% 59.1% inter: 23.2% 16.2% 3.2%
---[Information] [23.09.2013 8:24:34] x264 [info]: i16 v,h,dc,p: 61% 14% 10% 16%
---[Information] [23.09.2013 8:24:34] x264 [info]: i8 v,h,dc,ddl,ddr,vr,hd,vl,hu: 14% 11% 7% 9% 13% 13% 12% 11% 11%
---[Information] [23.09.2013 8:24:34] x264 [info]: i4 v,h,dc,ddl,ddr,vr,hd,vl,hu: 15% 10% 4% 8% 14% 14% 13% 11% 11%
---[Information] [23.09.2013 8:24:34] x264 [info]: i8c dc,h,v,p: 41% 21% 23% 15%
---[Information] [23.09.2013 8:24:34] x264 [info]: Weighted P-Frames: Y:6.1% UV:1.5%
---[Information] [23.09.2013 8:24:34] x264 [info]: ref P L0: 37.6% 11.8% 18.7% 5.6% 6.2% 3.6% 4.3% 1.7% 2.1% 1.4% 1.7% 1.1% 1.4% 1.0% 1.2% 0.7%
---[Information] [23.09.2013 8:24:34] x264 [info]: ref B L0: 75.5% 10.3% 3.9% 2.4% 1.5% 1.6% 1.1% 0.8% 0.6% 0.6% 0.4% 0.5% 0.4% 0.3% 0.2%
---[Information] [23.09.2013 8:24:34] x264 [info]: ref B L1: 95.8% 4.2%
---[Information] [23.09.2013 8:24:34] x264 [info]: kb/s:2033.92
---[Information] [23.09.2013 8:24:34] encoded 185979 frames, 3.19 fps, 2033.92 kb/s



Скачать Афера.The.Sting.(Джордж.Рой.Хилл.George.Roy.Hill).[1973.криминальная.драма.BDRip-AVC].[Dub].+.[MVO].+.[AVO].(Михалев).+.[Sub].(Rus.Eng).+.Original.(Eng).torrent без регистрации
Золото ЗОЛОТАЯ РАЗДАЧА! СКАЧАННОЕ НЕ ЗАСЧИТЫВАЕТСЯ! Золото
Дата: Зарегистрирован   [ Тип: внутренний ] Как тут cкачать?
MAGNET ссылка
MAGNET ссылка


Скачать .torrent

12 KB

Статус: проверено DHT
Скачан: торрент - 1170 раз, раздача полностью - 43 раз
Размер: 2,24 GB
Оценка:  5 (Голосов: 2)
Поблагодарили: 4
Поделиться ссылкой на эту раздачу с друзьями:
В контактеFacebookОдноклассникиTwitterLivejournalМой МирLiveinternet
 

 
Показать сообщения:    


Вы не можете начинать темы
Вы не можете отвечать на сообщения
Вы не можете редактировать свои сообщения
Вы не можете удалять свои сообщения
Вы не можете голосовать в опросах
Вы не можете прикреплять файлы к сообщениям
Вы можете скачивать файлы