Loading...
Error

Скачать Рыжая Соня / Red Sonja (Ричард Флайшер) [1985, Боевик, фэнтези, приключения, DVDRip] 4x[AVO] (А.Гаврилов, Ю.Сербин, Л.Володаский, В.Королев) + original торрент без регистрации

 
Статистика раздачи
Размер:  1,88 GB   |    Скачан:  141 раз
Сидов:  1  [  0 KB/s  ]  
 
Автор Сообщение

leon030982

[] 

Рыжая Соня / Red Sonja


Год выхода: 1985
Жанр: Боевик, фэнтези, приключения
Выпущено: Dino De Laurentiis Company, Нидерланды-США
Продолжительность: 01:28:57
Перевод 1[/b]: Авторский (одноголосый, закадровый) [А.Гаврилов]
Перевод 2: Авторский (одноголосый, закадровый) [Ю.Сербин]
Перевод 3: Авторский (одноголосый, закадровый) [Л.Володаский]
Перевод 4: Авторский (одноголосый, закадровый) [В.Королев]
Оригинальный аудиопоток: английский

Режиссер: Ричард Флайшер

В ролях: Арнольд Шварценеггер, Бригитте Нильсен, Сэндал Бергман, Пол Л. Смит, Эрни Рейес мл., Рональд Лейси, Пэт Роуч, Терри Ричардс, Джанет Агрен

О фильме:
Могущественная колдунья королева Гедрен похищает древний магический талисман, способный уничтожить весь мир. Легендарный герой Калидор и отважная воительница Рыжая Соня оправляются в далекий, полный опасностей поход к Хаблаку — столице королевы Гедрен, чтобы сразиться с силами зла и спасти Землю от разрушения…



Качество: DVDRip
Формат: AVI
Видео: 720x304 (2.35:1), 23.976 fps, XviD build 50 ~2 030 Kbps, 0.387 bit/pixel
Звук #1: 48 kHz, AC3 Dolby Digital, 2/0 (L,R) ch, ~192 kbps
Звук #2: 48 kHz, AC3 Dolby Digital, 2/0 (L,R) ch, ~192 kbps
Звук #3: 48 kHz, AC3 Dolby Digital, 2/0 (L,R) ch, ~192 kbps
Звук #4: 48 kHz, AC3 Dolby Digital, 2/0 (L,R) ch, ~192 kbps
Звук #5: 48 kHz, AC3 Dolby Digital, 2/0 (L,R) ch, ~192 kbps

Автор рипа - DeASS
General
Complete name : D:\Films 2\Red Sonja.1985 DVDrip.avi
Format : AVI
Format/Info : Audio Video Interleave
File size : 1.88 GiB
Duration : 1h 28mn
Overall bit rate : 3 018 Kbps
Writing application : VirtualDubMod 1.5.10.3 (build 2550/release)
Writing library : VirtualDubMod build 2550/release

Video
ID : 0
Format : MPEG-4 Visual
Format profile : Advanced Simple@L5
Format settings, BVOP : 1
Format settings, QPel : No
Format settings, GMC : No warppoints
Format settings, Matrix : Default (MPEG)
Codec ID : XVID
Codec ID/Hint : XviD
Duration : 1h 28mn
Bit rate : 2 030 Kbps
Width : 720 pixels
Height : 304 pixels
Display aspect ratio : 2.35:1
Frame rate : 23.976 fps
Color space : YUV
Chroma subsampling : 4:2:0
Bit depth : 8 bits
Scan type : Progressive
Compression mode : Lossy
Bits/(Pixel*Frame) : 0.387
Stream size : 1.26 GiB (67%)
Writing library : XviD 1.2.1 (UTC 2008-12-04)

Audio #1
ID : 1
Format : AC-3
Format/Info : Audio Coding 3
Mode extension : CM (complete main)
Format settings, Endianness : Big
Codec ID : 2000
Duration : 1h 28mn
Bit rate mode : Constant
Bit rate : 192 Kbps
Channel(s) : 2 channels
Channel positions : Front: L R
Sampling rate : 48.0 KHz
Bit depth : 16 bits
Compression mode : Lossy
Stream size : 122 MiB (6%)
Alignment : Split accross interleaves
Interleave, duration : 42 ms (1.00 video frame)
Interleave, preload duration : 500 ms

Audio #2
ID : 2
Format : AC-3
Format/Info : Audio Coding 3
Mode extension : CM (complete main)
Format settings, Endianness : Big
Codec ID : 2000
Duration : 1h 28mn
Bit rate mode : Constant
Bit rate : 192 Kbps
Channel(s) : 2 channels
Channel positions : Front: L R
Sampling rate : 48.0 KHz
Bit depth : 16 bits
Compression mode : Lossy
Stream size : 122 MiB (6%)
Alignment : Split accross interleaves
Interleave, duration : 42 ms (1.00 video frame)
Interleave, preload duration : 500 ms

Audio #3
ID : 3
Format : AC-3
Format/Info : Audio Coding 3
Mode extension : CM (complete main)
Format settings, Endianness : Big
Codec ID : 2000
Duration : 1h 28mn
Bit rate mode : Constant
Bit rate : 192 Kbps
Channel(s) : 2 channels
Channel positions : Front: L R
Sampling rate : 48.0 KHz
Bit depth : 16 bits
Compression mode : Lossy
Stream size : 122 MiB (6%)
Alignment : Split accross interleaves
Interleave, duration : 42 ms (1.00 video frame)
Interleave, preload duration : 500 ms

Audio #4
ID : 4
Format : AC-3
Format/Info : Audio Coding 3
Mode extension : CM (complete main)
Format settings, Endianness : Big
Codec ID : 2000
Duration : 1h 28mn
Bit rate mode : Constant
Bit rate : 192 Kbps
Channel(s) : 2 channels
Channel positions : Front: L R
Sampling rate : 48.0 KHz
Bit depth : 16 bits
Compression mode : Lossy
Stream size : 122 MiB (6%)
Alignment : Split accross interleaves
Interleave, duration : 42 ms (1.00 video frame)
Interleave, preload duration : 500 ms

Audio #5
ID : 5
Format : AC-3
Format/Info : Audio Coding 3
Mode extension : CM (complete main)
Format settings, Endianness : Big
Codec ID : 2000
Duration : 1h 28mn
Bit rate mode : Constant
Bit rate : 192 Kbps
Channel(s) : 2 channels
Channel positions : Front: L R
Sampling rate : 48.0 KHz
Bit depth : 16 bits
Compression mode : Lossy
Stream size : 122 MiB (6%)
Alignment : Split accross interleaves
Interleave, duration : 42 ms (1.00 video frame)
Interleave, preload duration : 500 ms



Скачать Рыжая.Соня.Red.Sonja.(Ричард.Флайшер).[1985.Боевик.фэнтези.приключения.DVDRip].4x[AVO].(А.Гаврилов.Ю.Сербин.Л.Володаский.В.Королев).+.original.torrent без регистрации
Золото ЗОЛОТАЯ РАЗДАЧА! СКАЧАННОЕ НЕ ЗАСЧИТЫВАЕТСЯ! Золото
Дата: Зарегистрирован   [ Тип: внутренний ] Как тут cкачать?
MAGNET ссылка
MAGNET ссылка


Скачать .torrent

19 KB

Статус: проверено DHT
Скачан: торрент - 141 раз, раздача полностью - 1 раз
Размер: 1,88 GB
Оценка:  5 (Голосов: 1)
Поблагодарили: 5
Поделиться ссылкой на эту раздачу с друзьями:
В контактеFacebookОдноклассникиTwitterLivejournalМой МирLiveinternet
 

 
Показать сообщения:    


Вы не можете начинать темы
Вы не можете отвечать на сообщения
Вы не можете редактировать свои сообщения
Вы не можете удалять свои сообщения
Вы не можете голосовать в опросах
Вы не можете прикреплять файлы к сообщениям
Вы можете скачивать файлы