Loading...
Error

Скачать Джек-попрыгунчик / Jumpin Jack Flash (Пенни Маршалл / Penny Marshall) [1986 г., Комедия, HDRip-AVC] [AVO] (А.Михалев) + [Original Eng] + [Sub eng] торрент без регистрации

 
Статистика раздачи
Размер:  1,79 GB   |    Скачан:  116 раз
Сидов:  1  [  0 KB/s  ]  
 
Автор Сообщение

leon030982

[] 

Джек-попрыгун / Jumpin Jack Flash


Год выпуска: 1986
Страна: США
Жанр: Комедия
Продолжительность: 01:45:18
Перевод: Авторский (одноголосный) [А.Михалев]
Оригинальная дорожка: английский
Субтитры:английские (отключаемые)

Режиссер: Пенни Маршалл / Penny Marshall

В ролях: Вупи Голдберг /Whoopi Goldberg/, Джонатан Прайс /Jonathan Pryce/, Джеймс Белуши /James Belushi/, Кэрол Кэйн /Carol Kane/, Энни Поттс /Annie Potts/, Питер Майкл Гетц /Peter Michael Goetz/, Роско Ли Браун /Roscoe Lee Browne/, Йерун Краббе /Jeroen Krabbe

Описание: В пух и прах разгромленная западной критикой, эта картина встречена нашим зрителем вполне доброжелательно. За исключением, пожалуй, тех, кто `в принципе` не переносит вида чернокожей кинозвезды Вупи Голдберг на экране. Здесь она играет миссис Терри Дулитл, оператора компьютерной обработки банковской информации, обожающую с помощью машины переговариваться со своими коллегами из разных стран мира. Однажды на дисплее появляется пароль `Джек-попрыгун` (для непосвященных: так называется одна из классических песен группы `Rolling Stones`), и тот, кто скрывается за этими позывными, сообщает Терри, что он - разведчик (шпион, если угодно), который должен где-то в Восточной Европе выбраться из западни, причем в самое ближайшее время...



Качество: HDRip-AVC [Исх. BluRay.x264-PSYCHD [PublicHD]]
Формат: MKV
Видео кодек: MPEG-4
Аудио кодек: AC3
Видео: 1280x696, 23,976 fps, MPEG-4 Visual ~1743 kbps avg, 0.082 bit/pixel
Аудио #1: 48 kHz, AC3 Dolby Digital, 3/2 (L,C,R,l,r) ch, ~448.00 kbps avg [AVO]
Аудио #2: 48 kHz, MPEG Layer 3, 2 ch, ~192.00 kbps avg [ENG]
General
Complete name : E:\Jumpin Jack Flash.1986.HDRip.[AVO](Mihalev)+Original Eng.mkv
Format : Matroska
File size : 1.79 GiB
Duration : 1h 45mn
Overall bit rate : 2 431 Kbps
Encoded date : UTC 2013-10-02 14:36:32
Writing application : mkvmerge v4.2.0 ('No Talking') сборка от Jul 28 2010 18:38:23
Writing library : libebml v1.0.0 + libmatroska v1.0.0

Video
ID : 1
Format : MPEG-4 Visual
Format profile : Advanced Simple@L5
Format settings, BVOP : Yes
Format settings, QPel : No
Format settings, GMC : No warppoints
Format settings, Matrix : Default (MPEG)
Codec ID : DX50
Codec ID/Hint : DivX 5
Duration : 1h 45mn
Bit rate : 1 743 Kbps
Width : 1 280 pixels
Height : 696 pixels
Display aspect ratio : 16:9
Frame rate : 23.976 fps
Color space : YUV
Chroma subsampling : 4:2:0
Bit depth : 8 bits
Scan type : Progressive
Bits/(Pixel*Frame) : 0.082
Stream size : 1.28 GiB (72%)
Writing library : XviD 1.2.1 (UTC 2008-12-04)

Audio #1
ID : 2
Format : AC-3
Format/Info : Audio Coding 3
Mode extension : CM (complete main)
Codec ID : A_AC3
Duration : 1h 45mn
Bit rate mode : Constant
Bit rate : 448 Kbps
Channel(s) : 5 channels
Channel positions : Front: L C R, Side: L R
Sampling rate : 48.0 KHz
Bit depth : 16 bits
Stream size : 337 MiB (18%)
Title : AVO
Language : Russian

Audio #2
ID : 3
Format : MPEG Audio
Format version : Version 1
Format profile : Layer 3
Codec ID : A_MPEG/L3
Codec ID/Hint : MP3
Duration : 1h 45mn
Bit rate mode : Constant
Bit rate : 192 Kbps
Channel(s) : 2 channels
Sampling rate : 48.0 KHz
Stream size : 145 MiB (8%)
Writing library : LAME3.99r
Encoding settings : -m s -V 4 -q 0 -lowpass 18.6 -b 192



Скачать Джек-попрыгунчик.Jumpin.Jack.Flash.(Пенни.Маршалл.Penny.Marshall).[1986.г.Комедия.HDRip-AVC].[AVO].(А.Михалев).+.[Original.Eng].+.[Sub.eng].torrent без регистрации
Золото ЗОЛОТАЯ РАЗДАЧА! СКАЧАННОЕ НЕ ЗАСЧИТЫВАЕТСЯ! Золото
Дата: Зарегистрирован   [ Тип: внутренний ] Как тут cкачать?
MAGNET ссылка
MAGNET ссылка


Скачать .torrent

18 KB

Статус: проверено DHT
Скачан: торрент - 116 раз, раздача полностью - 2 раз
Размер: 1,79 GB
Оценка:  5 (Голосов: 1)
Поблагодарили: 2
Поделиться ссылкой на эту раздачу с друзьями:
В контактеFacebookОдноклассникиTwitterLivejournalМой МирLiveinternet
 

 
Показать сообщения:    


Вы не можете начинать темы
Вы не можете отвечать на сообщения
Вы не можете редактировать свои сообщения
Вы не можете удалять свои сообщения
Вы не можете голосовать в опросах
Вы не можете прикреплять файлы к сообщениям
Вы можете скачивать файлы