Loading...
Error

Скачать Козерог один / Capricorn One (Питер Хайамс) [1977, фантастика, боевик, триллер, DVDRip] [MVO] торрент без регистрации

 
Статистика раздачи
Размер:  1,46 GB   |    Скачан:  119 раз
Сидов:  1  [  0 KB/s  ]  
 
Автор Сообщение

Marsianka

[] 

Страна: США, Великобритания
Производство: Associated General Films, Incorporated Television Company (ITC)
Жанр: фантастика, боевик, триллер
Год выпуска: 1977
Продолжительность: 02:03:10

Перевод: Профессиональный (Многоголосый, закадровый)
Оригинальная аудиодорожка: нет
Cубтитры: нет

Режиссер: Питер Хайамс / Peter Hyams

В ролях:
Эллиот Гулд /Elliott Gould/, Джеймс Бролин /James Brolin/, Бренда Ваккаро /Brenda Vaccaro/, Сэм Уотерстон /Sam Waterston/, О. Дж. Симпсон /O.J. Simpson/, Хэл Холбрук /Hal Holbrook/, Карен Блэк /Karen Black/, Телли Савалас /Telly Savalas/, Дэвид Хаддлстон /David Huddleston/, Дэвид Дойл /David Doyle/...

Описание:
Весь мир следит за подготовкой к первому полету на Марс. Неожиданно астронавтов забирают из космического корабля и отвозят на заброшенную базу в пустыне, где директор НАСА сообщает им, что возникли проблемы с системами жизнеобеспечения.
Но так как запланированный полет чрезвычайно важен для будущего развития космических исследовательских программ, он приказывает им принять участие в симулированной посадке на Марсе. Если они откажутся, то пострадают их семьи.
Полет якобы идет нормально, пока один из работников НАСА не обнаруживает несоответствие в показаниях приборов. Он говорит об этом своему другу репортеру, который, почувствовав сенсацию, начинает расследование


Исходник: BDRemux 1080p
Тип релиза: BDRip
Контейнер: AVI

Видео: 720x304 (2.35:1), 24 fps, XviD ~ 1236 kbps avg, 0.235 bit/pixel
Аудио: 48 kHz, Dolby AC3 5.1, 448 kbps

Раздача от:

Общее
Полное имя : Kozerog.odin.1977.BDRip_[Youtracker]_by_AVP Studio.avi
Формат : AVI
Формат/Информация : Audio Video Interleave
Размер файла : 1,46 Гбайт
Продолжительность : 2 ч. 3 м.
Общий поток : 1693 Кбит/сек
Программа кодирования : VirtualDubModRus 1.5.10.2 (build 2542/release)
Библиотека кодирования : VirtualDubMod build 2542/release

Видео
Идентификатор : 0
Формат : MPEG-4 Visual
Профиль формата : Advanced Simple@L5
Параметр BVOP формата : 1
Параметр QPel формата : Нет
Параметр GMC формата : Без точки перехода
Параметр матрицы формата : Выборочная
Идентификатор кодека : XVID
Идентификатор кодека/Подсказка : XviD
Продолжительность : 2 ч. 3 м.
Битрейт : 1236 Кбит/сек
Ширина : 720 пикселей
Высота : 304 пикселя
Соотношение сторон : 2,35:1
Частота кадров : 24,000 кадра/сек
Цветовое пространство : YUV
Субдискретизация насыщенности : 4:2:0
Битовая глубина : 8 бит
Тип развёртки : Прогрессивная
Метод сжатия : С потерями
Бит/(Пиксели*Кадры) : 0.235
Размер потока : 1,06 Гбайт (73%)
Библиотека кодирования : XviD 73

Аудио
Идентификатор : 1
Формат : AC-3
Формат/Информация : Audio Coding 3
Расширение режима : CM (complete main)
Идентификатор кодека : 2000
Продолжительность : 2 ч. 3 м.
Вид битрейта : Постоянный
Битрейт : 448 Кбит/сек
Каналы : 6 каналов
Расположение каналов : Front: L C R, Side: L R, LFE
Частота : 48,0 КГц
Битовая глубина : 16 бит
Метод сжатия : С потерями
Размер потока : 395 Мбайт (26%)
Выравнивание : Разделение по промежуткам
Продолжительность промежутка : 42 мс. (1,00 видеокадр)
Время предзагрузки промежутка : 500 мс

Номинации:
1979г. Academy of Science Fiction, Fantasy & Horror Films, USA
Лучший научно-фантастический фильм
Лучшая актриса второго плана Бренда Ваккаро
Лучшие костюмы
Лучшие спецэффекты



Скачать Козерог.один.Capricorn.One.(Питер.Хайамс).[1977.фантастика.боевик.триллер.DVDRip].[MVO].torrent без регистрации
Золото ЗОЛОТАЯ РАЗДАЧА! СКАЧАННОЕ НЕ ЗАСЧИТЫВАЕТСЯ! Золото
Дата: Зарегистрирован   [ Тип: внутренний ] Как тут cкачать?
MAGNET ссылка
MAGNET ссылка


Скачать .torrent

15 KB

Статус: проверено DHT
Скачан: торрент - 119 раз, раздача полностью - 110 раз
Размер: 1,46 GB
Оценка:  - (Голосов: 0)
Поблагодарили: 4
Поделиться ссылкой на эту раздачу с друзьями:
В контактеFacebookОдноклассникиTwitterLivejournalМой МирLiveinternet
 

 
Показать сообщения:    


Вы не можете начинать темы
Вы не можете отвечать на сообщения
Вы не можете редактировать свои сообщения
Вы не можете удалять свои сообщения
Вы не можете голосовать в опросах
Вы не можете прикреплять файлы к сообщениям
Вы можете скачивать файлы