Loading...
Error

Скачать Обитель призраков / Laa-thaa-phii / Ghost case (Саравут Вичьенсарн) [2006, ужасы, BDRip-AVC] [DVO] торрент без регистрации

 
Статистика раздачи
Размер:  2,65 GB   |    Скачан:  137 раз
Сидов:  1  [  0 KB/s  ]  
 
Автор Сообщение

Marsianka

[] 

Информация о фильме
Название: Обитель призраков
Оригинальное название: Laa-thaa-phii / Ghost case
Год выхода: 2006
Жанр: ужасы
Режиссер: Саравут Вичьенсарн
В ролях: Пачорнпол Джантиенг, Китилак Чулакрин, Таньянан Махарипон, Понгсак Раттанапхонг, Супатсири Патомнупонг

О фильме:
Участники популярного реалити-шоу надеются получить солидные гонорары за то, что проведут ночь в старом концлагере, где, по слухам, остались неупокоенными души замученных в его застенках жертв. Но вскоре все понимают, что леденящие кровь истории не были вымыслом и обитатели потустороннего мира действительно существуют. Люди оказались пленниками в обители призраков, жаждущих отомстить живым за свои немыслимые страдания.



Страна: Таиланд
Студия: NGR
Продолжительность: 01:48:58
Перевод: Профессиональный двухголосый

Файл
Кодек: x264
Качество: BDRip-AVC
Видео: MPEG-4 AVC, 2400 Кбит/с, 1016x576, 24.000 кадр/с
1. Русский (АС3, 2 ch, 192 Кбит/с) / Профессиональный двухголосый
2. Французский (AC3, 6 ch, 448 Кбит/с)
3. Тайский (AC3, 6 ch, 448 Кбит/с)
Общее
Уникальный идентификатор : 175863536615427227079858566011024301892 (0x844E15CB097AE7B3BF415CEAEA0FDF44)
Полное имя : Obitel.prizrakov.2006.x264.BDRip(AVC)-MediaClub.mkv
Формат : Matroska
Версия формата : Version 2
Размер файла : 2,65 Гбайт
Продолжительность : 1 ч. 48 м.
Общий поток : 3488 Кбит/сек
Название фильма : Release - MediaClub Rip by == vvmon ==
Дата кодирования : UTC 2013-10-01 15:28:12
Программа кодирования : mkvmerge v5.4.0 ('Piper') built on Mar 10 2012 13:34:39
Библиотека кодирования : libebml v1.2.3 + libmatroska v1.3.0

Видео
Идентификатор : 1
Формат : AVC
Формат/Информация : Advanced Video Codec
Профиль формата : High@L4.1
Параметр CABAC формата : Да
Параметр ReFrames формата : 8 кадров
Идентификатор кодека : V_MPEG4/ISO/AVC
Продолжительность : 1 ч. 48 м.
Битрейт : 2400 Кбит/сек
Ширина : 1016 пикселей
Высота : 576 пикселей
Соотношение сторон : 16:9
Режим частоты кадров : Постоянный
Частота кадров : 24,000 кадра/сек
Цветовое пространство : YUV
Субдискретизация насыщенности : 4:2:0
Битовая глубина : 8 бит
Тип развёртки : Прогрессивная
Бит/(Пиксели*Кадры) : 0.171
Размер потока : 1,77 Гбайт (67%)
Заголовок : Obitel.prizrakov.2006.x264.BDRip(AVC)-MediaClub.mkv
Библиотека кодирования : x264 core 133 r2334 a3ac64b
Настройки программы : cabac=1 / ref=8 / deblock=1:-2:-2 / analyse=0x3:0x133 / me=umh / subme=11 / psy=1 / psy_rd=1.00:0.00 / mixed_ref=1 / me_range=48 / chroma_me=1 / trellis=2 / 8x8dct=1 / cqm=0 / deadzone=21,11 / fast_pskip=0 / chroma_qp_offset=-2 / threads=3 / lookahead_threads=1 / sliced_threads=0 / nr=0 / decimate=0 / interlaced=0 / bluray_compat=0 / constrained_intra=0 / bframes=8 / b_pyramid=2 / b_adapt=2 / b_bias=0 / direct=3 / weightb=1 / open_gop=0 / weightp=2 / keyint=240 / keyint_min=23 / scenecut=40 / intra_refresh=0 / rc=2pass / mbtree=0 / bitrate=2400 / ratetol=1.0 / qcomp=0.60 / qpmin=10 / qpmax=51 / qpstep=4 / cplxblur=20.0 / qblur=0.5 / ip_ratio=1.40 / pb_ratio=1.30 / aq=2:1.00
Язык : English
Default : Да
Forced : Нет

Аудио #1
Идентификатор : 2
Формат : AC-3
Формат/Информация : Audio Coding 3
Расширение режима : CM (complete main)
Параметр Endianness формата : Big
Идентификатор кодека : A_AC3
Продолжительность : 1 ч. 48 м.
Вид битрейта : Постоянный
Битрейт : 192 Кбит/сек
Каналы : 2 канала
Расположение каналов : Front: L R
Частота : 48,0 КГц
Битовая глубина : 16 бит
Метод сжатия : С потерями
Размер потока : 150 Мбайт (6%)
Заголовок : Профессиональный двухголосый
Язык : Russian
Default : Да
Forced : Нет

Аудио #2
Идентификатор : 3
Формат : AC-3
Формат/Информация : Audio Coding 3
Расширение режима : CM (complete main)
Параметр Endianness формата : Big
Идентификатор кодека : A_AC3
Продолжительность : 1 ч. 48 м.
Вид битрейта : Постоянный
Битрейт : 448 Кбит/сек
Каналы : 6 каналов
Расположение каналов : Front: L C R, Side: L R, LFE
Частота : 48,0 КГц
Битовая глубина : 16 бит
Метод сжатия : С потерями
Размер потока : 349 Мбайт (13%)
Заголовок : Французский
Язык : French
Default : Нет
Forced : Нет

Аудио #3
Идентификатор : 4
Формат : AC-3
Формат/Информация : Audio Coding 3
Расширение режима : CM (complete main)
Параметр Endianness формата : Big
Идентификатор кодека : A_AC3
Продолжительность : 1 ч. 48 м.
Вид битрейта : Постоянный
Битрейт : 448 Кбит/сек
Каналы : 6 каналов
Расположение каналов : Front: L C R, Side: L R, LFE
Частота : 48,0 КГц
Битовая глубина : 16 бит
Метод сжатия : С потерями
Размер потока : 349 Мбайт (13%)
Заголовок : Тайский
Язык : Thai
Default : Нет
Forced : Нет

Меню
00:00:00.000 : :Chapter 01
00:17:17.375 : :Chapter 02
00:30:07.666 : :Chapter 03
00:46:24.833 : :Chapter 04
01:05:18.208 : :Chapter 05
01:27:10.000 : :Chapter 06
---[Information] [01.10.2013 12:28:01] x264 [info]: frame I:1056 Avg QP:14.97 size: 47837
---[Information] [01.10.2013 12:28:01] x264 [info]: frame P:34526 Avg QP:17.34 size: 22058
---[Information] [01.10.2013 12:28:01] x264 [info]: frame B:121338 Avg QP:19.59 size: 9457
Сохранены оригинальные чаптеры как на Blu-ray
За синхронизацию русской дорожки и за исходник большое спасибо Викс
Релиз от: Rip by



Скачать Обитель.призраков.Laa-thaa-phii.Ghost.case.(Саравут.Вичьенсарн).[2006.ужасы.BDRip-AVC].[DVO].torrent без регистрации
Золото ЗОЛОТАЯ РАЗДАЧА! СКАЧАННОЕ НЕ ЗАСЧИТЫВАЕТСЯ! Золото
Дата: Зарегистрирован   [ Тип: внутренний ] Как тут cкачать?
MAGNET ссылка
MAGNET ссылка


Скачать .torrent

14 KB

Статус: проверено DHT
Скачан: торрент - 137 раз, раздача полностью - 2 раз
Размер: 2,65 GB
Оценка:  - (Голосов: 0)
Поблагодарили: 2
Поделиться ссылкой на эту раздачу с друзьями:
В контактеFacebookОдноклассникиTwitterLivejournalМой МирLiveinternet
 

 
Показать сообщения:    


Вы не можете начинать темы
Вы не можете отвечать на сообщения
Вы не можете редактировать свои сообщения
Вы не можете удалять свои сообщения
Вы не можете голосовать в опросах
Вы не можете прикреплять файлы к сообщениям
Вы можете скачивать файлы