Loading...
Error

Скачать Пожарные Чикаго / Chicago Fire (Полный 2-ой сезон) (Джо Чаппелль / Joe Chappelle) [2013, Драма, WEB-DL] [720p] [VO] (Шадинский) + [Original] + Eng Subs торрент без регистрации

 
Статистика раздачи
Размер:  31,96 GB   |    Скачан:  626 раз
Сидов:  1  [  0 KB/s  ]  
 
Автор Сообщение

leon030982

[] 

Пожарные Чикаго | Chicago Fire


«Life in the heat of it.»


Год выпуска : 2013
Страна : США
Жанр : драма
Продолжительность : 00:45:00
Перевод : Профессиональный (одноголосый закадровый) [Шадинский]
Субтитры : English

Режиссёр : Джо Чаппелль / Joe Chappelle

В ролях : Джесси Спенсер, Тэйлор Кинни, Эамон Уолкер, Дэвид Эйгенберг, Лорен Герман, Терри Ривз, Моника Реймунд и др.

Описание : Firehouse 51 — это слаженная команда чикагских пожарных, спасателей и парамедиков, которые ежедневно и еженощно спасают жизни людей попавших в плен огненной стихии.
Лейтенант Мэтью Кейси — прирожденный лидер и настоящий пожарный. После разрыва с любимой женщиной он во многом пересмотрел свои взгляды на многие вещи. А после гибели друга и коллеги Эндрю Дардена, Кейси теперь постоянно находится в конфронтации с другим членом команды — спасателем, лейтенантом Келли Северайдом. Они не могут смириться с потерей друга и поэтому обвиняют друг друга в смерти Дардена.
Также в команду входят новичок Питер Миллс, чей отец также был пожарным, два парамедика: Габриэла Доусон и Лесли Шей и шеф - Уоллес Боден.
Находясь на переднем рубеже жизни и смерти, им приходится принимать не простые решения, они постоянно рискуют своими жизнями, надеясь лишь на поддержку коллег и друзей, что бы ни случилось...

Сэмпл : http://multi-up.com/907758

Качество : WEB-DL 720p
Формат : MKV
Видео : AVC, 1280x720, 23.976 fps, ~4000 Kbps, 0.182 bit/pixel
Аудио Rus : AC3, 48 KHz, 6 ch, 384 Kbps
Аудио Eng : AC3, 48 KHz, 6 ch, 384 Kbps
Работа со звуком : 13napas
Общее
Уникальный идентификатор : 182745283495384383715622209589909263669 (0x897B761C3568C0BF840F2CC4BC0E1535)
Полное имя : H:\Chicago.Fire.S02.720p.WEB-DL.DD5.1.Rus.Eng\Chicago.Fire.S02E01.720p.WEB-DL.DD5.1.Rus.Eng.mkv
Формат : Matroska
Версия формата : Version 4 / Version 2
Размер файла : 1,47 Гбайт
Продолжительность : 42 м.
Общий поток : 4888 Кбит/сек
Дата кодирования : UTC 2013-09-28 19:15:16
Программа кодирования : mkvmerge v6.3.0 ('You can't stop me!') built on Jun 28 2013 20:09:41
Библиотека кодирования : libebml v1.3.0 + libmatroska v1.4.0
Видео
Идентификатор : 1
Формат : AVC
Формат/Информация : Advanced Video Codec
Профиль формата : High@L3.1
Параметр CABAC формата : Нет
Параметр ReFrames формата : 2 кадра
Идентификатор кодека : V_MPEG4/ISO/AVC
Продолжительность : 42 м.
Битрейт : 4023 Кбит/сек
Ширина : 1280 пикселей
Высота : 720 пикселей
Соотношение сторон : 16:9
Режим частоты кадров : Постоянный
Частота кадров : 23,976 кадра/сек
Цветовое пространство : YUV
Субдискретизация насыщенности : 4:2:0
Битовая глубина : 8 бит
Тип развёртки : Прогрессивная
Бит/(Пиксели*Кадры) : 0.182
Размер потока : 1,21 Гбайт (82%)
Язык : English
Default : Да
Forced : Нет
Основные цвета : BT.709
Характеристики трансфера : BT.709
Коэффициенты матрицы : BT.709
Аудио #1
Идентификатор : 2
Формат : AC-3
Формат/Информация : Audio Coding 3
Расширение режима : CM (complete main)
Параметр Endianness формата : Big
Идентификатор кодека : A_AC3
Продолжительность : 42 м.
Вид битрейта : Постоянный
Битрейт : 384 Кбит/сек
Каналы : 6 каналов
Расположение каналов : Front: L C R, Side: L R, LFE
Частота : 48,0 КГц
Битовая глубина : 16 бит
Метод сжатия : С потерями
Размер потока : 118 Мбайт (8%)
Язык : Russian
Default : Да
Forced : Нет
Аудио #2
Идентификатор : 3
Формат : AC-3
Формат/Информация : Audio Coding 3
Расширение режима : CM (complete main)
Параметр Endianness формата : Big
Идентификатор кодека : A_AC3
Продолжительность : 42 м.
Вид битрейта : Постоянный
Битрейт : 384 Кбит/сек
Каналы : 6 каналов
Расположение каналов : Front: L C R, Side: L R, LFE
Частота : 48,0 КГц
Битовая глубина : 16 бит
Метод сжатия : С потерями
Размер потока : 118 Мбайт (8%)
Язык : English
Default : Нет
Forced : Нет
Текст
Идентификатор : 4
Формат : UTF-8
Идентификатор кодека : S_TEXT/UTF8
Идентификатор кодека/Информация : UTF-8 Plain Text
Язык : English
Default : Нет
Forced : Нет
Внимание! Раздача ведётся путём добавления новых серий; при каждом добавлении создаётся новый торрент. Чтобы начать докачку новой серии, пользователям необходимо сделать следующее:
(1) остановить скачивание,
(2) удалить старый торрент-файл у себя из клиента (старые серии удалять не надо),
(3) скачать новый торрент-файл из раздачи и запустить его у себя в клиенте вместо старого, при этом указать клиенту путь в старую папку куда и должно происходить скачивание новых серий.
Ваш клиент при этом должен произвести хеширование (проверку) старой папки (если не производит сам - помогите ему сделать это), и будет докачивать только те серии которых у вас ещё нет. Старые серии при этом не удаляются, а продолжают раздаваться!
Eсли вы уже посмотрели и удалили старые серии, то предотвратить повторную закачку старых серий можно, сняв галочки в соответсвующих местах при запуске нового торрента. По возможности, желательно не удалять старые серии как можно дольше чтобы релизёр не столько продолжал раздавать старые серии, а смог сконцентрироваться на новых.



Скачать Пожарные.Чикаго.Chicago.Fire.(Полный.2-ой.сезон).(Джо.Чаппелль.Joe.Chappelle).[2013.Драма.WEB-DL].[720p].[VO].(Шадинский).+.[Original].+.Eng.Subs.torrent без регистрации
Золото ЗОЛОТАЯ РАЗДАЧА! СКАЧАННОЕ НЕ ЗАСЧИТЫВАЕТСЯ! Золото
Дата: Зарегистрирован   [ Тип: внутренний ] Как тут cкачать?
MAGNET ссылка
MAGNET ссылка


Скачать .torrent

82 KB

Статус: проверено DHT
Скачан: торрент - 626 раз, раздача полностью - 7 раз
Размер: 31,96 GB
Оценка:  5 (Голосов: 1)
Поблагодарили: 3
Поделиться ссылкой на эту раздачу с друзьями:
В контактеFacebookОдноклассникиTwitterLivejournalМой МирLiveinternet
 

 

KIT

[] 

есть новости про перевод:(многоголосый закадровый) Wayland Team?этот одноголосый закадровый [Шадинский]не нравится...
 

leon030982

[] 

KIT писал(а):

есть новости про перевод:(многоголосый закадровый) Wayland Team?этот одноголосый закадровый [Шадинский]не нравится...
не нравится то смотрите в оригинале с субтитрами ab Wayland Team походу накрылась давно, они и первый сезон не озвучили до конца
 

KIT

[] 

leon030982 жаль,может будут энтузиасты,посмотрим ab
 

leon030982

[] 

KIT писал(а):

leon030982 жаль,может будут энтузиасты,посмотрим ab
энтузиастов мало в наше время и они одиночки ab а если в озвучке двое и больше человек заняты то как правило работают они уже за деньги
 

KIT

[] 

leon030982 почему такая пауза большая была,Шадинский в отпуске был?
 

leon030982

[] 

KIT писал(а):

leon030982 почему такая пауза большая была,Шадинский в отпуске был?
Шадинский работает на энтузиазме а не за $ ab , и переводит в свободное время.Вот если бы озвучку спонсировали то думаю и серии бы оперативней выходили.Так что спасибо ему за труды ab
 

leon030982

[] 

18-я серия!
 

leon030982

[] 

Раздача обновлена
 

leon030982

[] 

20-я серия
 

leon030982

[] 

раздача обновлена
 

leon030982

[] 

Финал сезона!сериал продлен на 3-ий сезон ab
 
Показать сообщения:    


Вы не можете начинать темы
Вы не можете отвечать на сообщения
Вы не можете редактировать свои сообщения
Вы не можете удалять свои сообщения
Вы не можете голосовать в опросах
Вы не можете прикреплять файлы к сообщениям
Вы можете скачивать файлы