Loading...
Error

Скачать Сонная лощина / Sleepy Hollow (Лен Уайзман) (Сезон 1, Серия 1-13 из 13) [2013-2014, Фантастика,фэнтези, триллер , WEB-DLRip-AVC 1080p] [DD5.1] [MVO] [NewStudio] торрент без регистрации

 
Статистика раздачи
Размер:  20,43 GB   |    Скачан:  5545 раз
Сидов:  1  [  0 KB/s  ]  
 
Автор Сообщение

Nikolai.Baranov

[] 



Сонная лощина / Sleepy Hollow




Год выпуска: 2013-2014
Выпущено: США , 20th Century Fox Television, Kurtzman Orci Paper Products
Жанр: Фантастика,фэнтези, триллер
Продолжительность: 00:47:00
Сезон: 1
Серия: 1-13
Количество серий в сезоне: 13
Перевод: Weirdie
Озвучка:Профессиональная многоголосая закадровая(NewStudio)(Владимир Курдов, Анна Тух, Александр Дасевич и Константин Погодаев.)
Субтитры: НЕТ



Режиссер: Лен Уайзман

В ролях: Том Мисон, Николь Бехари, Орландо Джонс, Катя Винтер, Меми Уэст, Кристофер МакКоннелл, Клэнси Браун, Ричард Цетрон, Джон Чо, Кристофер Козорт


Бывает так, что после своей смерти вы просыпаетесь аж через 250 лет в далеком будущем, где мир находится в полной опасности. В нем происходят необъяснимые события и ваша роль спасти человечество. Речь идет о Сонной Лощине, небольшом городишке. Наш главный герой Икабод Крэйн восстает для того чтобы разобраться в тайне, которая была покрыта мраком еще с прошлых времен. Вместе с ним оживает и так называемый Всадник без головы, который начинает убивать жителей Лощины. Икабод не понаслышке знает о нем, ведь именно он в битве отрубил ему голову и данный убийца является одним из представителей Всадников Апокалипсиса. Наш герой чувствует себя очень неловко в современном мире, но вместе с Эбби Миллс, которая верит в существование сверхъестественных сил Икабод собирается бороться со злом. Они составляют прекрасный дуэт: он имеет отличные знания давней истории Америки, она прекрасный психолог и оценщик потенциальной угрозы.

Качество : WEB-DLRip-AVC 1080p
Формат: MPEG-4
Видео кодек: H264
Видео: 5223Кбит/сек,1920х1080(16.9),в 25.000кадр/сек,AVC(Baseline@L4.0)(1Ref Frames)
Аудио кодек: AAC
Аудио Russian Dolby Digital 5.1:401Кбит/сек,44.1КГц,6каналов,AAC,(Version4)(LC)


Звуковая дорожка сделана путем наложения чистого голоса озвучивателей на центральный канал оригинальной дорожки. Качество идентично звуковой дорожке.



01. Пилот / Pilot
02. Кровавая луна / Blood Moon
03. Чтобы зло восторжествовало... / For the Triumph of Evil...
04. Малый ключ Соломона / The Lesser Key of Solomon
05. Джон Доу / John Doe
06. Пожиратель Грехов / The Sin Eater
07. The Midnight Ride / Полуночная скачка
08. Necromancer / Некромант
09. Sanctuary / Убежище
10. The Golem / Голем
11. The Vessel / Сосуд
12. Indispensable Man / Незаменимый человек
13. Bad Blood / Дурная кровь



General
Полное имя : D:\У Ж А С Ы\Сонная Лощина\Sleepy_Hollow_2013_S01_RUS[NewStudio.TV]_DD5.1_x264_Nikolai.Baranov_WEB-DLRip-AVC_(1080p)\Sleepy_Hollow_2013_S01E01_RUS[NewStudio.TV]_DD5.1_x264_Nikolai.Baranov_WEB-DLRip-AVC_(1080p).mp4
Формат : MPEG-4
Профиль формата : Base Media
Идентификатор кодека : isom
Размер файла : 1.86 GiB
Продолжительность : 47mn 12s
Режим общего битрейта : Variable
Общий поток : 5 628 Kbps
Название фильма : BaibaKo.tv presents - Белая королева 1x01
Дата кодирования : UTC 2013-09-30 05:45:35
Дата пометки : UTC 2013-09-30 05:45:35
Программа кодирования : Lavf51.12.1

Video
Идентификатор : 1
Формат : AVC
Формат/Информация : Advanced Video Codec
Профиль формата : Baseline@L4.0
Параметр CABAC формата : No
Параметр ReFrames формата : 1 frame
Параметр GOP формата : M=1, N=12
Идентификатор кодека : avc1
Идентификатор кодека/Информация : Advanced Video Coding
Продолжительность : 47mn 12s
Вид битрейта : Variable
Битрейт : 5 223 Kbps
Максимальный битрейт : 7 500 Kbps
Ширина : 1 920 pixels
Высота : 1 080 pixels
Соотношение сторон : 16:9
Режим частоты кадров : Constant
Частота кадров : 25.000 fps
Частота кадров в оригинале : 24.000 fps
Цветовое пространство : YUV
Субдискретизация насыщенности : 4:2:0
Битовая глубина : 8 bits
Тип развёртки : Progressive
Бит/(Пиксели*Кадры) : 0.101
Размер потока : 1.72 GiB (93%)
Язык : English
Дата кодирования : UTC 2013-09-30 05:45:35
Дата пометки : UTC 2013-09-30 05:45:35

Audio
Идентификатор : 2
Формат : AAC
Формат/Информация : Advanced Audio Codec
Профиль формата : LC
Идентификатор кодека : 40
Продолжительность : 47mn 12s
Вид битрейта : Variable
Битрейт : 401 Kbps
Каналы : 6 channels
Расположение каналов : Front: L C R, Side: L R, LFE
Частота : 44.1 KHz
Метод сжатия : Lossy
Размер потока : 136 MiB (7%)
Язык : Russian
Дата кодирования : UTC 2013-09-30 05:45:35
Дата пометки : UTC 2013-09-30 05:45:35









1. Открыть торрент
2. Снять галки с тех файлов торрента, которые мы не хотим закачивать. Оставляем только на нужных нам файлах (файле).
3. Нажать О.К.

В клиенте utorrent

Инструкция

1) Открыть торрент


2) Снять галки с тех файлов торрента, которые мы не хотим закачивать:

* либо вручную, снимая с каждого файла галку( скрин №1)
* либо, нажав кнопку "Снять метки (Select None)", сняв сразу со всех файлов(скрин №2)
№1

№2

Оставляем только на нужных нам файлах (файле).

3)Нажать О.К




Внимание!!! 24.01. 2014. РАЗДАЧА ОБНОВЛЕНА.ФИНАЛ СЕЗОНА.ОБНОВИТЕ ТОРЕНТ ФАЙЛ.ПРИЯТНОГО ПРОСМОТРА .

Релиз от: Nikolai.Baranov










Скачать Сонная.лощина.Sleepy.Hollow.(Лен.Уайзман).(Сезон.1.Серия.1-13.из.13).[2013-2014.Фантастика.фэнтези.триллер.WEB-DLRip-AVC.1080p].[DD5.1].[MVO].[NewStudio].torrent без регистрации
Золото ЗОЛОТАЯ РАЗДАЧА! СКАЧАННОЕ НЕ ЗАСЧИТЫВАЕТСЯ! Золото
Дата: Зарегистрирован   [ Тип: внутренний ] Как тут cкачать?
MAGNET ссылка
MAGNET ссылка


Скачать .torrent

53 KB

Статус: проверено DHT
Скачан: торрент - 5545 раз, раздача полностью - 67 раз
Размер: 20,43 GB
Оценка:  5 (Голосов: 1)
Поблагодарили: 7
Поделиться ссылкой на эту раздачу с друзьями:
В контактеFacebookОдноклассникиTwitterLivejournalМой МирLiveinternet
 

 
Показать сообщения:    


Вы не можете начинать темы
Вы не можете отвечать на сообщения
Вы не можете редактировать свои сообщения
Вы не можете удалять свои сообщения
Вы не можете голосовать в опросах
Вы не можете прикреплять файлы к сообщениям
Вы можете скачивать файлы