Loading...
Error

Скачать Убийство на пляже / Broadchurch (сезон 01) (Джеймс Стронг, Эрос Лин) [2013, драма, криминал, HDTV] [1080i] [MVO (Первый канал)] торрент без регистрации

 
Статистика раздачи
Размер:  16,35 GB   |    Скачан:  141 раз
Сидов:  1  [  0 KB/s  ]  
 
Автор Сообщение

МихаНЕзатор

[] 

Информация о фильме
Название: Убийство на пляже
Оригинальное название: Broadchurch
Год выхода: 2013
Жанр: драма, криминал
Режиссер: Джеймс Стронг, Эрос Лин

В ролях: Оливия Колман, Дэвид Теннант, Джоди Уиттакер, Эндрю Бачан, Адам Уилсон, Шарлотта Бомонт, Джонатан Бэйли, Артур Дарвилл, Мэттью Гравель, Кэролин Пиклз

О фильме:
Жарким июльским утром, в разгар туристического сезона в дорсетском городке под названием Бродчёрч пропадает 11-летний школьник Дэнни Латимер. Его мать, Бет, начинает искать его, тогда как её лучшая подруга, Элли Миллер, офицер местной полиции, выходит из отпуска на работу и обнаруживает, что повышение, на которое она рассчитывала, достаётся детективу-инспектору Алеку Харди, приезжему с репутацией неудачника. Когда тело Дэнни находят под живописными скалами, обрамляющими город, противоположности сталкиваются. И Миллер, и Харди твёрдо намерены решить загадку убийства Дэнни. Элли, возможно, слишком сочувствуя людям из её сообщества, Алек столь же эффективно, сколько и бесстрастно. Когда новость о преступлении разлетается по городу, запускается цепная реакция, которая привлечёт к Бродчёрчу внимание всей страны, вытаскивая на свет город, его обитателей и их секреты.



Страна: Великобритания
Продолжительность: 6 x ~ 00:45:00
Перевод: Профессиональный многоголосый закадровый, Первый канал

Файл
Кодек: MPEG-4 AVC
Качество: HDTV 1080i
Видео: 1920x1080 at 25.000 fps, ~7000 kbps avg
Звук: Russian: 48 kHz, MPA, 2/0 (L,R) ch, ~192.00 kbps avg |Многоголосый закадровый, Первый канал|

Релиз от: by Nez

04.10.2013 г. торент обновлён, добавлена 7-8 серия!

Общее
Идентификатор : 1 (0x1)
Полное имя : Broadchurch.S01.1080i.HDTV.Rus.HDCLUB\Broadchurch.S01E01-02.1080i.HDTV.Rus.HDCLUB.ts
Формат : MPEG-TS
Размер файла : 4,17 Гбайт
Продолжительность : 1 ч. 30 м.
Режим общего битрейта : Переменный
Общий поток : 6565 Кбит/сек

Видео
Идентификатор : 513 (0x201)
Идентификатор меню : 1 (0x1)
Формат : AVC
Формат/Информация : Advanced Video Codec
Профиль формата : High@L4.0
Параметр CABAC формата : Да
Параметр ReFrames формата : 3 кадра
Идентификатор кодека : 27
Продолжительность : 1 ч. 30 м.
Битрейт : 6047 Кбит/сек
Ширина : 1920 пикселей
Высота : 1080 пикселей
Соотношение сторон : 16:9
Частота кадров : 25,000 кадров/сек
Стандарт вещания : Component
Цветовое пространство : YUV
Субдискретизация насыщенности : 4:2:0
Битовая глубина : 8 бит
Тип развёртки : Чересстрочная
Порядок развёртки : Верхнее поле первое
Бит/(Пиксели*Кадры) : 0.117
Размер потока : 3,84 Гбайт (92%)
Основные цвета : BT.709
Характеристики трансфера : BT.709
Коэффициенты матрицы : BT.709

Аудио
Идентификатор : 514 (0x202)
Идентификатор меню : 1 (0x1)
Формат : MPEG Audio
Версия формата : Version 1
Профиль формата : Layer 2
Идентификатор кодека : 3
Продолжительность : 1 ч. 30 м.
Вид битрейта : Постоянный
Битрейт : 192 Кбит/сек
Каналы : 2 канала
Частота : 48,0 КГц
Метод сжатия : С потерями
Размер потока : 125 Мбайт (3%)
Язык : Russian

Общее
Идентификатор : 1 (0x1)
Полное имя : Broadchurch.S01.1080i.HDTV.Rus.HDCLUB\Broadchurch.S01E03-04.1080i.HDTV.Rus.HDCLUB.ts
Формат : MPEG-TS
Размер файла : 4,00 Гбайт
Продолжительность : 1 ч. 30 м.
Режим общего битрейта : Переменный
Общий поток : 6352 Кбит/сек

Видео
Идентификатор : 513 (0x201)
Идентификатор меню : 1 (0x1)
Формат : AVC
Формат/Информация : Advanced Video Codec
Профиль формата : High@L4.0
Параметр CABAC формата : Да
Параметр ReFrames формата : 3 кадра
Идентификатор кодека : 27
Продолжительность : 1 ч. 30 м.
Битрейт : 5844 Кбит/сек
Ширина : 1920 пикселей
Высота : 1080 пикселей
Соотношение сторон : 16:9
Частота кадров : 25,000 кадров/сек
Стандарт вещания : Component
Цветовое пространство : YUV
Субдискретизация насыщенности : 4:2:0
Битовая глубина : 8 бит
Тип развёртки : Чересстрочная
Порядок развёртки : Верхнее поле первое
Бит/(Пиксели*Кадры) : 0.113
Размер потока : 3,68 Гбайт (92%)
Основные цвета : BT.709
Характеристики трансфера : BT.709
Коэффициенты матрицы : BT.709

Аудио
Идентификатор : 514 (0x202)
Идентификатор меню : 1 (0x1)
Формат : MPEG Audio
Версия формата : Version 1
Профиль формата : Layer 2
Идентификатор кодека : 3
Продолжительность : 1 ч. 30 м.
Вид битрейта : Постоянный
Битрейт : 192 Кбит/сек
Каналы : 2 канала
Частота : 48,0 КГц
Метод сжатия : С потерями
Размер потока : 124 Мбайт (3%)
Язык : Russian

Общее
Идентификатор : 1 (0x1)
Полное имя : Broadchurch.S01.1080i.HDTV.Rus.HDCLUB\Broadchurch.S01E05-06.1080i.HDTV.Rus.HDCLUB.ts
Формат : MPEG-TS
Размер файла : 4,05 Гбайт
Продолжительность : 1 ч. 30 м.
Режим общего битрейта : Переменный
Общий поток : 6382 Кбит/сек

Видео
Идентификатор : 69 (0x45)
Идентификатор меню : 1 (0x1)
Формат : AVC
Формат/Информация : Advanced Video Codec
Профиль формата : High@L4.0
Параметр CABAC формата : Да
Параметр ReFrames формата : 3 кадра
Идентификатор кодека : 27
Продолжительность : 1 ч. 30 м.
Битрейт : 5873 Кбит/сек
Ширина : 1920 пикселей
Высота : 1080 пикселей
Соотношение сторон : 16:9
Частота кадров : 25,000 кадров/сек
Стандарт вещания : Component
Цветовое пространство : YUV
Субдискретизация насыщенности : 4:2:0
Битовая глубина : 8 бит
Тип развёртки : Чересстрочная
Порядок развёртки : Верхнее поле первое
Бит/(Пиксели*Кадры) : 0.113
Размер потока : 3,73 Гбайт (92%)
Основные цвета : BT.709
Характеристики трансфера : BT.709
Коэффициенты матрицы : BT.709

Аудио
Идентификатор : 68 (0x44)
Идентификатор меню : 1 (0x1)
Формат : MPEG Audio
Версия формата : Version 1
Профиль формата : Layer 2
Идентификатор кодека : 3
Продолжительность : 1 ч. 30 м.
Вид битрейта : Постоянный
Битрейт : 192 Кбит/сек
Каналы : 2 канала
Частота : 48,0 КГц
Метод сжатия : С потерями
Размер потока : 125 Мбайт (3%)
Язык : Russian



Скачать Убийство.на.пляже.Broadchurch.(сезон.01).(Джеймс.Стронг.Эрос.Лин).[2013.драма.криминал.HDTV].[1080i].[MVO.(Первый.канал)].torrent без регистрации
Золото ЗОЛОТАЯ РАЗДАЧА! СКАЧАННОЕ НЕ ЗАСЧИТЫВАЕТСЯ! Золото
Дата: Зарегистрирован   [ Тип: внутренний ] Как тут cкачать?
MAGNET ссылка
MAGNET ссылка


Скачать .torrent

21 KB

Статус: проверено DHT
Скачан: торрент - 141 раз, раздача полностью - 111 раз
Размер: 16,35 GB
Оценка:  - (Голосов: 0)
Поблагодарили: 1
Поделиться ссылкой на эту раздачу с друзьями:
В контактеFacebookОдноклассникиTwitterLivejournalМой МирLiveinternet
 

 

МихаНЕзатор

[] 

Раздача обновлена
 
Показать сообщения:    


Вы не можете начинать темы
Вы не можете отвечать на сообщения
Вы не можете редактировать свои сообщения
Вы не можете удалять свои сообщения
Вы не можете голосовать в опросах
Вы не можете прикреплять файлы к сообщениям
Вы можете скачивать файлы