Loading...
Error

Скачать До смерти красива / Drop Dead Diva (05x01-08) (Дэвид Петрарка) [2012, комедия, драма, юриспруденция, фантастика, HDTVRip] [VO (HamsterStudio)] торрент без регистрации

 
Статистика раздачи
Размер:  3,08 GB   |    Скачан:  119 раз
Сидов:  1  [  0 KB/s  ]  
 
Автор Сообщение

МихаНЕзатор

[] 

До смертикрасива / Drop DeadDiva

Название: До смерти красива
Оригинальное название: Drop Dead Diva
Год выпуска: 2013
Жанр: комедия, драма, юриспруденция, фантастика
Выпущено: США
Продолжительность: ~ 00:42:30
Перевод: Любительский одноголосый (Юлия Реутова 1-2 Анастасия Снегирева 3 - HamsterStudio)
Режиссер: Дэвид Петрарка

В ролях: Брук Эллиотт, Маргарет Чо, Эйприл Боулби, Бен Фельдман, Кейт Леверинг, Райан С. Херст, Брук Д`Орсей, Джош Стэмберг, Эшли ЛеКонте Кэмпбелл, Шон Маэр

Описание: Недалекая блондинка и модель Дебби погибает в автокатастрофе. Невероятным образом ее душа переселяется в тело Джейн, которая умирает на операционном столе. В жизни Джейн была успешным адвокатом с несколько нестандартной внешностью. Что там приключилось на небе, непонятно, однако очнувшись в новом теле, Джейн все помнит из своей прошлой жизни, однако теперь она обладает к тому же хорошими адвокатскими знаниями.
Теперь главная героиня должна не только привыкать к новому телу, но и вести скучные, как ей кажется, юридические дела. Невероятным образом ее парень Грейсон Кент (актер Джексон Херст) устраивается на работу в ту же самую юридическую фирму. Он ведь и понятия не имеет, что Дебби не совсем погибла, а переселилась в тело Джейн.



Качество: WEB-DLRip
Формат: AVI
Видео кодек: XviD
Аудио кодек: MP3
Видео: XviD, 720x400 (16:9), 23.976 fps, 1 503 Kbps (0.218 bit/pixel)
Аудио: MP3, 48.0 KHz, 2 ch, 192 Kbps, CBR (Rus)

08.10.2013 г. торент обновлён, добавлена 8-я серия!

General
Complete name : Drop.Dead.Diva.S05E01.WEB-DLRip.Rus-HamsterStudio.avi
Format : AVI
Format/Info : Audio Video Interleave
File size : 517 MiB
Duration : 42mn 28s
Overall bit rate : 1 701 Kbps
Video #0
ID : 0
Format : MPEG-4 Visual
Format profile : Advanced Simple@L5
Format settings, BVOP : 1
Format settings, QPel : No
Format settings, GMC : No warppoints
Format settings, Matrix : Default (H.263)
Codec ID : XVID
Codec ID/Hint : XviD
Duration : 42mn 28s
Bit rate : 1 503 Kbps
Width : 720 pixels
Height : 400 pixels
Display aspect ratio : 16:9
Frame rate : 23.976 fps
Color space : YUV
Chroma subsampling : 4:2:0
Bit depth : 8 bits
Scan type : Progressive
Compression mode : Lossy
Bits/(Pixel*Frame) : 0.218
Stream size : 457 MiB (88%)
Writing library : XviD 1.2.1 (UTC 2008-12-04)
Audio #1
ID : 1
Format : MPEG Audio
Format version : Version 1
Format profile : Layer 3
Mode : Joint stereo
Mode extension : MS Stereo
Codec ID : 55
Codec ID/Hint : MP3
Duration : 42mn 28s
Bit rate mode : Constant
Bit rate : 192 Kbps
Channel(s) : 2 channels
Sampling rate : 48.0 KHz
Compression mode : Lossy
Stream size : 58.3 MiB (11%)
Alignment : Aligned on interleaves
Interleave, duration : 167 ms (4.00 video frames)
Interleave, preload duration : 216 ms
Title : Юлия Реутова
Writing library : LAME3.99r
Encoding settings : -m j -V 4 -q 2 -lowpass 18.6 -b 192

Внимание! Раздача ведётся путём добавления новых серий; при каждом добавлении создаётся новый торрент. Чтобы начать докачку новой серии, пользователям необходимо сделать следующее: (1) остановить скачивание, (2) удалить старый торрент у себя из клиента (старые серии удалять не надо), (3) скачать новый торрент и запустить его у себя в клиенте вместо старого, при этом указать клиенту путь в старую папку куда и должно происходить скачивание новых серий.
Ваш клиент при этом должен произвести хеширование (проверку) старой папки (если не производит сам - помогите ему сделать это), и будет докачивать только те серии которых у вас ещё нет. Старые серии при этом не удаляются, а продолжают раздаваться!
Если вы уже удалили старые серии, то предотвратить повторную закачку старых серий можно, отжав галочку в соответствующих местах при запуске нового торрента.



Скачать До.смерти.красива.Drop.Dead.Diva.(05x01-08).(Дэвид.Петрарка).[2012.комедия.драма.юриспруденция.фантастика.HDTVRip].[VO.(HamsterStudio)].torrent без регистрации
Золото ЗОЛОТАЯ РАЗДАЧА! СКАЧАННОЕ НЕ ЗАСЧИТЫВАЕТСЯ! Золото
Дата: Зарегистрирован   [ Тип: внутренний ] Как тут cкачать?
MAGNET ссылка
MAGNET ссылка


Скачать .torrent

17 KB

Статус: проверено DHT
Скачан: торрент - 119 раз, раздача полностью - 23 раз
Размер: 3,08 GB
Оценка:  - (Голосов: 0)
Поблагодарили: 1
Поделиться ссылкой на эту раздачу с друзьями:
В контактеFacebookОдноклассникиTwitterLivejournalМой МирLiveinternet
 

 

МихаНЕзатор

[] 

Раздача обновлена
 
Показать сообщения:    


Вы не можете начинать темы
Вы не можете отвечать на сообщения
Вы не можете редактировать свои сообщения
Вы не можете удалять свои сообщения
Вы не можете голосовать в опросах
Вы не можете прикреплять файлы к сообщениям
Вы можете скачивать файлы