Loading...
Error

Скачать Дневники вампира / The Vampire Diaries (сезон 05) (Маркос Сига, Элизабет Аллен) [2013, ужасы, фэнтези, драма, мелодрама, HDTVRip] [DVO (Kerob)]+[Original] торрент без регистрации

 
Статистика раздачи
Размер:  9,01 GB   |    Скачан:  342 раза
Сидов:  1  [  0 KB/s  ]  
 
Автор Сообщение

МихаНЕзатор

[] 

Название: Дневники вампира
Оригинальное название: The Vampire Diaries
Год выпуска: 2013
Выпущено: США, Reveille Productions, NBC Universal Television, Deedle-Dee Productions, Universal Media Studios (UMS), Universal TV
Продолжительность:~ 00:43:00
Жанр: ужасы, фэнтези, драма, мелодрама
Перевод: Одноголосый (закадровый) Kerob
Русские субтитры: есть
Автор перевода: notabenoid
Режиссер: Маркос Сига, Элизабет Аллен

В ролях: Нина Добрев, Пол Уэсли, Йен Сомерхалдер, Катерина Грэхэм, Стивен Р. МакКуин, Бенджамин Эйрс, Стив Белфорд, Сара Каннинг, Кайла Юэлл, Марси Т. Хаус

Описание: Прошло всего четыре месяца после трагической аварии, в которой погибли их родители, и 17-летняя Елена Гилберт и ее 15-летний брат Джереми все еще пытаются оправиться от потери и вернуться к нормальной жизни. Елена всегда была отличной ученицей, красивой и популярной девушкой в школе, но теперь ей очень тяжело скрывать свою печаль от внешнего мира. В начале учебного года внимание Елены и ее друзей привлекает новый ученик, загадочный и красивый Стефан Сальваторе.

Стефан и Елена тут же чувствуют взаимную симпатию, но Елена даже не подозревает, что Стефан вампир, которому уже сотни лет, и который старается мирно жить среди людей, несмотря на то, что его брат, Дэймон воплощение вампирской жестокости и кровожадности. Теперь два брата-вампира один добрый, другой злой ведут борьбу за души Елены, ее друзей и других жителей городка Мистик Фоллз.

Качество: HDTVRip
Формат: AVI
Видео кодек: XviD
Аудио кодек: AC3
Видео: 720x400 (1.80:1), 23.976 fps, XviD build 50 ~1076 kbps avg, 0.23 bit/pixel
Аудио: 48 kHz, MP3, 2 ch, ~192.00 kbps avg - KEROB
Аудио: 48 kHz, MP3, 2 ch, ~192.00 kbps avg - ORIGINAL
Субтитры: русские

АНОНСЫ ПОПУЛЯРНЫХ РАЗДАЧ


20.05.2014 г. торент обновлён, добавлена 22 серия, сезон завершён!
Format : AVI
Format/Info : Audio Video Interleave
File size : 432 MiB
Duration : 42mn 23s
Overall bit rate : 1 424 Kbps
Writing application : VirtualDubMod 1.5.10.2 (build 2540/release)
Writing library : VirtualDubMod build 2540/release

Video
ID : 0
Format : MPEG-4 Visual
Format profile : Advanced Simple@L5
Format settings, BVOP : 2
Format settings, QPel : No
Format settings, GMC : No warppoints
Format settings, Matrix : Default (MPEG)
Codec ID : XVID
Codec ID/Hint : XviD
Duration : 42mn 23s
Bit rate : 1 026 Kbps
Width : 720 pixels
Height : 400 pixels
Display aspect ratio : 16:9
Frame rate : 23.976 fps
Color space : YUV
Chroma subsampling : 4:2:0
Bit depth : 8 bits
Scan type : Progressive
Compression mode : Lossy
Bits/(Pixel*Frame) : 0.149
Stream size : 311 MiB (72%)
Writing library : XviD 1.2.1 (UTC 2008-12-04)

Audio #1
ID : 1
Format : MPEG Audio
Format version : Version 1
Format profile : Layer 3
Mode : Joint stereo
Codec ID : 55
Codec ID/Hint : MP3
Duration : 42mn 23s
Bit rate mode : Constant
Bit rate : 192 Kbps
Channel(s) : 2 channels
Sampling rate : 48.0 KHz
Compression mode : Lossy
Stream size : 58.2 MiB (13%)
Alignment : Aligned on interleaves
Interleave, duration : 42 ms (1.00 video frame)
Interleave, preload duration : 504 ms

Audio #2
ID : 2
Format : MPEG Audio
Format version : Version 1
Format profile : Layer 3
Codec ID : 55
Codec ID/Hint : MP3
Duration : 42mn 23s
Bit rate mode : Constant
Bit rate : 192 Kbps
Channel(s) : 2 channels
Sampling rate : 48.0 KHz
Compression mode : Lossy
Stream size : 58.2 MiB (13%)
Alignment : Split accross interleaves
Interleave, duration : 42 ms (1.00 video frame)
Interleave, preload duration : 500 ms
Внимание! Раздача ведётся путём добавления новых серий; при каждом добавлении создаётся новый торрент. Чтобы начать докачку новой серии, пользователям необходимо сделать следующее:
(1) остановить скачивание,
(2) удалить старый торрент у себя из клиента (старые серии удалять не надо),
(3) скачать новый торрент и запустить его у себя в клиенте вместо старого, при этом указать клиенту путь в старую папку куда и должно происходить скачивание новых серий.

Ваш клиент при этом должен произвести хеширование (проверку) старой папки (если не производит сам - помогите ему сделать это), и будет докачивать только те серии которых у вас ещё нет. Старые серии при этом не удаляются, а продолжают раздаваться!

Eсли вы уже удалили старые серии, то предотвратить повторную закачку старых серий можно, отжав галочку в соответствующих местах при запуске нового торрента. По возможности, желательно не удалять старые серии как можно дольше чтобы релизёр не столько продолжал раздавать старые серии, а смог сконцентрироваться на новых.
Озвучено при поддержке сайта FAST-TORRENT



Скачать Дневники.вампира.The.Vampire.Diaries.(сезон.05).(Маркос.Сига.Элизабет.Аллен).[2013.ужасы.фэнтези.драма.мелодрама.HDTVRip].[DVO.(Kerob)]+[Original].torrent без регистрации
Золото ЗОЛОТАЯ РАЗДАЧА! СКАЧАННОЕ НЕ ЗАСЧИТЫВАЕТСЯ! Золото
Дата: Зарегистрирован   [ Тип: внутренний ] Как тут cкачать?
MAGNET ссылка
MAGNET ссылка


Скачать .torrent

27 KB

Статус: проверено DHT
Скачан: торрент - 342 раз, раздача полностью - 21 раз
Размер: 9,01 GB
Оценка:  5 (Голосов: 2)
Поблагодарили: 3
Поделиться ссылкой на эту раздачу с друзьями:
В контактеFacebookОдноклассникиTwitterLivejournalМой МирLiveinternet
 

 

МихаНЕзатор

[] 

Раздача обновлена
 
Показать сообщения:    


Вы не можете начинать темы
Вы не можете отвечать на сообщения
Вы не можете редактировать свои сообщения
Вы не можете удалять свои сообщения
Вы не можете голосовать в опросах
Вы не можете прикреплять файлы к сообщениям
Вы можете скачивать файлы