Loading...
Error

Скачать Элементарно / Elementary (сезон 02) (Джон Дэвид Коулз, Майкл Куэста, Род Холкомб) [2013, драма, криминал, детектив, HDTVRip] [VO (Kerob)]+[Original] торрент без регистрации

 
Статистика раздачи
Размер:  10,08 GB   |    Скачан:  3911 раз
Сидов:  1  [  0 KB/s  ]  
 
Автор Сообщение

МихаНЕзатор

[] 

Название: Элементарно
Оригинальное название: Elementary
Год выпуска: 2013
Жанр: драма, криминал, детектив
Выпущено: США, CBS Television Studios, Hill of Beans Productions, Timberman-Beverly Productions
Продолжительность: 1 x ~ 00:43:00
Перевод: Одноголосый (закадровый) Kerob
Русские субтитры: есть
Автор перевода: notabenoid

Режиссер: Джон Дэвид Коулз, Майкл Куэста, Род Холкомб

В ролях: Джонни Ли Миллер, Люси Лью, Эйдан Куинн, Джон Майкл Хилл, Даллас Робертс, Мэнни Перез, Джонатан Уолкер, Кристен Буш, Крэйг Уолкер, Майкл Натансон, Шерри Х. Арелл, Уорд Хортон, Дженнифер Феррин, Билл Хек, Кэйси Семашко, Роза Арредондо, Рей Лукас, Кен Маркс, Аса Сомерс, Пол Майкл Вэлли, Янси Ариас, Кейтлинн Бэйли, Эндрю Чемберлен, Майкл Кантримэн, Эрин Дилли

О фильме: Новый сериал от канала CBS - это криминально-детективная драма "Элементарно". Новая интерпретация классического произведения Артура Конана Дойла о Шерлоке Холмсе. Но сюжет сериала будет развиваться не по классическому сценарию, главный герой поменяет не только прописку, он переедет из Лондона в Нью-Йорк, но и эпоху, сюжет будет разворачиваться в наше время. Также зрителей ждет еще один сюрприз, теперь у Шерлока будет не помощник в лице Доктора Ватсона а помощница, роль которой досталось обворожительной Люси Лью. «Элементарно» - современная криминальная драма о дуэте детектива Шерлока Холмса (Джонни Ли Миллер) и доктора Джоан Ватсон (Люси Лю), который решает самые запутанные дела в полицейском департаменте Нью-Йорка.


Качество: HDTVRip
Формат: AVI
Видео кодек: XviD
Аудио кодек: AC3
Видео: 720x400 (1.80:1), 23.976 fps, XviD build 50 ~1024 kbps avg, 0.23 bit/pixel
Аудио: 48 kHz, MP3, 2 ch, ~192.00 kbps avg - KEROB
Аудио: 48 kHz, MP3, 2 ch, ~192.00 kbps avg - ORIGINAL
Субтитры: русские

АНОНСЫ ПОПУЛЯРНЫХ РАЗДАЧ


Торент обновлён, добавлена 24 серия!
Format : AVI
Format/Info : Audio Video Interleave
File size : 444 MiB
Duration : 43mn 35s
Overall bit rate : 1 422 Kbps
Writing application : VirtualDubMod 1.5.10.2 (build 2540/release)
Writing library : VirtualDubMod build 2540/release

Video
ID : 0
Format : MPEG-4 Visual
Format profile : Advanced Simple@L5
Format settings, BVOP : 2
Format settings, QPel : No
Format settings, GMC : No warppoints
Format settings, Matrix : Default (MPEG)
Codec ID : XVID
Codec ID/Hint : XviD
Duration : 43mn 35s
Bit rate : 1 024 Kbps
Width : 720 pixels
Height : 400 pixels
Display aspect ratio : 16:9
Frame rate : 23.976 fps
Color space : YUV
Chroma subsampling : 4:2:0
Bit depth : 8 bits
Scan type : Progressive
Compression mode : Lossy
Bits/(Pixel*Frame) : 0.148
Stream size : 319 MiB (72%)
Writing library : XviD 1.2.1 (UTC 2008-12-04)

Audio #1
ID : 1
Format : MPEG Audio
Format version : Version 1
Format profile : Layer 3
Mode : Joint stereo
Codec ID : 55
Codec ID/Hint : MP3
Duration : 43mn 35s
Bit rate mode : Constant
Bit rate : 192 Kbps
Channel(s) : 2 channels
Sampling rate : 48.0 KHz
Compression mode : Lossy
Stream size : 59.9 MiB (13%)
Alignment : Aligned on interleaves
Interleave, duration : 42 ms (1.00 video frame)
Interleave, preload duration : 504 ms

Audio #2
ID : 2
Format : MPEG Audio
Format version : Version 1
Format profile : Layer 3
Codec ID : 55
Codec ID/Hint : MP3
Duration : 43mn 35s
Bit rate mode : Constant
Bit rate : 192 Kbps
Channel(s) : 2 channels
Sampling rate : 48.0 KHz
Compression mode : Lossy
Stream size : 59.9 MiB (13%)
Alignment : Split accross interleaves
Interleave, duration : 42 ms (1.00 video frame)
Interleave, preload duration : 500 ms
Writing library : LAME3.98.2
Внимание! Раздача ведётся путём добавления новых серий; при каждом добавлении создаётся новый торрент. Чтобы начать докачку новой серии, пользователям необходимо сделать следующее:
(1) остановить скачивание,
(2) удалить старый торрент у себя из клиента (старые серии удалять не надо),
(3) скачать новый торрент и запустить его у себя в клиенте вместо старого, при этом указать клиенту путь в старую папку куда и должно происходить скачивание новых серий.

Ваш клиент при этом должен произвести хеширование (проверку) старой папки (если не производит сам - помогите ему сделать это), и будет докачивать только те серии которых у вас ещё нет. Старые серии при этом не удаляются, а продолжают раздаваться!

Eсли вы уже удалили старые серии, то предотвратить повторную закачку старых серий можно, отжав галочку в соответствующих местах при запуске нового торрента. По возможности, желательно не удалять старые серии как можно дольше чтобы релизёр не столько продолжал раздавать старые серии, а смог сконцентрироваться на новых.



Скачать Элементарно.Elementary.(сезон.02).(Джон.Дэвид.Коулз.Майкл.Куэста.Род.Холкомб).[2013.драма.криминал.детектив.HDTVRip].[VO.(Kerob)]+[Original].torrent без регистрации
Золото ЗОЛОТАЯ РАЗДАЧА! СКАЧАННОЕ НЕ ЗАСЧИТЫВАЕТСЯ! Золото
Дата: Зарегистрирован   [ Тип: внутренний ] Как тут cкачать?
MAGNET ссылка
MAGNET ссылка


Скачать .torrent

29 KB

Статус: проверено DHT
Скачан: торрент - 3911 раз, раздача полностью - 57 раз
Размер: 10,08 GB
Оценка:  5 (Голосов: 1)
Поблагодарили: 9
Поделиться ссылкой на эту раздачу с друзьями:
В контактеFacebookОдноклассникиTwitterLivejournalМой МирLiveinternet
 

 

МихаНЕзатор

[] 

Раздача обновлена.
 
Показать сообщения:    


Вы не можете начинать темы
Вы не можете отвечать на сообщения
Вы не можете редактировать свои сообщения
Вы не можете удалять свои сообщения
Вы не можете голосовать в опросах
Вы не можете прикреплять файлы к сообщениям
Вы можете скачивать файлы