Loading...
Error

Скачать Дело Дойлов / Republic of Doyle (Сезон 05, серии 01-08 из 17) (Аллан Хоуко) [2013, Драма, комедия, детектив, HDTVRip] Original + Rus Subs (Нотабеноид) торрент без регистрации

 
Статистика раздачи
Размер:  3,1 GB   |    Скачан:  6670 раз
Сидов:  1  [  0 KB/s  ]  
 
Автор Сообщение

leon030982

[] 

Дело Дойлов / Republic of Doyle
Год выпуска: 2013
Страна: Канада
Жанр: Драма, комедия, детектив
Продолжительность: 00:43:32
Перевод: Субтитры Нотабеноид
Русские субтитры: есть
Автор перевода: Нотабеноид

Режиссёр: Аллан Хоуко

В ролях: Аллан Хоуко, Кристин Пеллерин, Шон МакГинли, Линда Бойд, Рэйчел Уилсон

Описание: Вам приходило когда-либо в голову нанять частного детектива? Если да, то идеальное детективное агенство – это «Дойл&Дойл» - агенство отца и сына Джека и Мэлаки Дойлов. Детектив Джейк Дойл готов взяться за самое запутанное дело, в конце концов у него был самый лучший учитель – его отец и партнер Мэлаки Дойл, бывший полицейский старой школы в стиле Коломбо, под внешним добродушием которого прячется железный характер. Агенство «Дойл&Дойл» занимается любыми расследованиями – от супружеской измены, поджогов, судебных ошибок до краж произведений искусств и сбежавших жен.

Сэмпл: http://multi-up.com/909963
Качество: HDTVRip
Формат: AVI
Видео кодек: XviD
Аудио кодек: MP3
Видео: 640x360 (1.78:1), 23.976 fps, 996 kbps avg, 0.18 bit/pixel
Аудио: 48 kHz, 2 ch, 128.00 kbps avg
General
Complete name : D:\Фильмы\Дело Дойлов (сезон 5 sub)\Republic.of.Doyle.S05E01.HDTV.XviD-AFG.avi
Format : AVI
Format/Info : Audio Video Interleave
File size : 354 MiB
Duration : 43mn 32s
Overall bit rate : 1 138 Kbps
Video
ID : 0
Format : MPEG-4 Visual
Format profile : Advanced Simple@L5
Format settings, BVOP : Yes
Format settings, QPel : No
Format settings, GMC : No warppoints
Format settings, Matrix : Default (H.263)
Codec ID : XVID
Codec ID/Hint : XviD
Duration : 43mn 32s
Bit rate : 997 Kbps
Width : 640 pixels
Height : 360 pixels
Display aspect ratio : 16:9
Frame rate : 23.976 fps
Resolution : 8 bits
Colorimetry : 4:2:0
Scan type : Progressive
Bits/(Pixel*Frame) : 0.181
Stream size : 311 MiB (88%)
Writing library : XviD 64
Audio
ID : 1
Format : MPEG Audio
Format version : Version 1
Format profile : Layer 3
Mode : Joint stereo
Format_Settings_ModeExtension : MS Stereo
Codec ID : 55
Codec ID/Hint : MP3
Duration : 43mn 32s
Bit rate mode : Variable
Bit rate : 128 Kbps
Channel(s) : 2 channels
Sampling rate : 48.0 KHz
Stream size : 39.9 MiB (11%)
Alignment : Aligned on interleaves
Interleave, duration : 24 ms (0.58 video frame)
Interleave, preload duration : 178 ms
Title : Republic.of.Doyle.S05E01.HDTV.XviD-AFG_360p.audio
General
Complete name : D:\Фильмы\Дело Дойлов (сезон 5 sub)\Republic.of.Doyle.S05E01.HDTV.XviD-AFG.srt
Format : SubRip
File size : 65.1 KiB
Text
Format : SubRip
Внимание! Раздача ведётся путём добавления новых серий; при каждом добавлении создаётся новый торрент. Чтобы начать докачку новой серии, пользователям необходимо сделать следующее:
(1) остановить скачивание,
(2) удалить старый торрент у себя из клиента (старые серии удалять не надо),
(3) скачать новый торрент и запустить его у себя в клиенте вместо старого, при этом указать клиенту путь в старую папку куда и должно происходить скачивание новых серий.
Ваш клиент при этом должен произвести хеширование (проверку) старой папки (если не производит сам - помогите ему сделать это), и будет докачивать только те серии, которых у вас ещё нет. Старые серии при этом не удаляются, а продолжают раздаваться!
Eсли вы уже удалили старые серии, то предотвратить повторную закачку старых серий можно, отжав галочку в соответствующих местах при запуске нового торрента. По возможности, желательно не удалять старые серии как можно дольше, чтобы релизёр не только продолжал раздавать старые серии, а смог сконцентрироваться на новых.



Скачать Дело.Дойлов.Republic.of.Doyle.(Сезон.05.серии.01-08.из.17).(Аллан.Хоуко).[2013.Драма.комедия.детектив.HDTVRip].Original.+.Rus.Subs.(Нотабеноид).torrent без регистрации
Золото ЗОЛОТАЯ РАЗДАЧА! СКАЧАННОЕ НЕ ЗАСЧИТЫВАЕТСЯ! Золото
Дата: Зарегистрирован   [ Тип: внутренний ] Как тут cкачать?
MAGNET ссылка
MAGNET ссылка


Скачать .torrent

17 KB

Статус: проверено DHT
Скачан: торрент - 6670 раз, раздача полностью - 1 раз
Размер: 3,1 GB
Оценка:  5 (Голосов: 1)
Поблагодарили: 2
Поделиться ссылкой на эту раздачу с друзьями:
В контактеFacebookОдноклассникиTwitterLivejournalМой МирLiveinternet
 

 

leon030982

[] 

2-я серия!
 

leon030982

[] 

раздача обновлена az
 

leon030982

[] 

Обновлено!
 

leon030982

[] 

обновлено az
 

leon030982

[] 

8-я серия
 
Показать сообщения:    


Вы не можете начинать темы
Вы не можете отвечать на сообщения
Вы не можете редактировать свои сообщения
Вы не можете удалять свои сообщения
Вы не можете голосовать в опросах
Вы не можете прикреплять файлы к сообщениям
Вы можете скачивать файлы