Loading...
Error

Скачать Американская семейка / Modern Family (Сезон 3, Серии 1-24 из 24) (Джейсон Уайнер, Реджинальд Хадлин) [2011, Комедия, WEB-DLRip][DUB (Paramount Comedy)][Original] торрент без регистрации

 
Статистика раздачи
Размер:  5 GB   |    Скачан:  7646 раз
Сидов:  1  [  0 KB/s  ]  
 
Автор Сообщение

deadmauVlad

[] 

WEB-DLRip | WEB-DL 720p
Американская семейка / Modern Family

Год выпуска: 2011
Страна: США
Жанр: Комедия
Продолжительность: ~00:21:37
Перевод: Профессиональное, полное дублирование Paramount Comedy
Русские субтитры: нет

Режиссёр: Джейсон Уайнер, Реджинальд Хадлин
В ролях: Эд О’Нил (Ed O'Neill), София Вергара (Sofía Vergara), Джули Боуэн (Julie Bowen), Ти Баррелл (Ty Burrell), Джесси Тайлер Фергюсон (Jesse Tyler Ferguson), Рико Родригез (Rico Rodriguez), Сара Хайланд (Sarah Hyland), Эриель Винтер (Ariel Winter) и др.

Описание: Джей Притчетт (Эд О’Нил) познакомился со сногсшибательной колумбийкой Глорией (София Вергара), когда она в бикини подавала ему коктейли на вечеринке, которую он устроил в день ухода егo первой жены. Теперь Джей и Глория женаты, и Джей изо всех сил старается не отставать от молодой красотки-жены и ее сына-подростка.
В семье Клэр Данфи (Джули Боуэн) тоже не все гладко. Ее муж Фил (Тай Беррел) – просто замечательный, но он считает, что “свой в доску” для своих детей, чем их сильно смущает.
Митчелл Притчет (Джесси Тайлер Фергюсон) и его партнер Камерон (Эрик Стоунстрит) только что удочерили Лили, очаровательного младенца из Вьетнама.
Modern Family – это псевдодокументальный взгляд на сложную жизнь и любовь этих трех семей.

Сэмпл: http://multi-up.com/909560 | http://files.neolabs.kz/fl/?id=61718

Качество: WEB-DLRip
Формат: AVI
Видео кодек: XviD
Аудио кодек: MP3
Видео: 720x400 (1.80:1), 23.976 fps, XviD build 64 ~1109 kbps avg, 0.16 bit/pixel
Аудио #1: 48 kHz, MPEG Layer 3, 2 ch, ~128.00 kbps avg | Paramount Comedy |
Аудио #2: 48 kHz, MPEG Layer 3, 2 ch, ~128.00 kbps avg | Оригинал |
General
Complete name : C:\Users\Администратор\Desktop\Раздачи\Modern Family Seasons 3 Paramount Comedy\modern.family.s03e01.web-dlrip.rus.eng.paramount.comedy.avi
Format : AVI
Format/Info : Audio Video Interleave
File size : 213 MiB
Duration : 21mn 37s
Overall bit rate : 1 379 Kbps
Writing application : VirtualDubMod 1.5.10.3 | www.virtualdub-fr.org || (build 2550/release)
Writing library : VirtualDubMod build 2550/release

Video
ID : 0
Format : MPEG-4 Visual
Format profile : Advanced Simple@L5
Format settings, BVOP : 2
Format settings, QPel : No
Format settings, GMC : No warppoints
Format settings, Matrix : Default (H.263)
Codec ID : XVID
Codec ID/Hint : XviD
Duration : 21mn 37s
Bit rate : 1 109 Kbps
Width : 720 pixels
Height : 400 pixels
Display aspect ratio : 16:9
Frame rate : 23.976 fps
Color space : YUV
Chroma subsampling : 4:2:0
Bit depth : 8 bits
Scan type : Progressive
Compression mode : Lossy
Bits/(Pixel*Frame) : 0.161
Stream size : 171 MiB (80%)
Writing library : XviD 64

Audio #1
ID : 1
Format : MPEG Audio
Format version : Version 1
Format profile : Layer 3
Mode : Joint stereo
Mode extension : MS Stereo
Codec ID : 55
Codec ID/Hint : MP3
Duration : 21mn 37s
Bit rate mode : Constant
Bit rate : 128 Kbps
Channel(s) : 2 channels
Sampling rate : 48.0 KHz
Compression mode : Lossy
Stream size : 19.8 MiB (9%)
Alignment : Aligned on interleaves
Interleave, duration : 42 ms (1.00 video frame)
Interleave, preload duration : 504 ms
Writing library : LAME3.99r
Encoding settings : -m j -V 4 -q 0 -lowpass 17 -b 128

Audio #2
ID : 2
Format : MPEG Audio
Format version : Version 1
Format profile : Layer 3
Mode : Joint stereo
Mode extension : MS Stereo
Codec ID : 55
Codec ID/Hint : MP3
Duration : 21mn 37s
Bit rate mode : Constant
Bit rate : 128 Kbps
Channel(s) : 2 channels
Sampling rate : 48.0 KHz
Compression mode : Lossy
Stream size : 19.8 MiB (9%)
Alignment : Aligned on interleaves
Interleave, duration : 42 ms (1.00 video frame)
Interleave, preload duration : 504 ms
Writing library : LAME3.99r
Encoding settings : -m j -V 4 -q 0 -lowpass 17 -b 128
Звук предоставил: Beer kolesik Drinkers, kalachk
Подготовка видео: TaLi4
Работа со звуком: Sanikus
Скриншоты



Скачать Американская.семейка.Modern.Family.(Сезон.3.Серии.1-24.из.24).(Джейсон.Уайнер.Реджинальд.Хадлин).[2011.Комедия.WEB-DLRip][DUB.(Paramount.Comedy)][Original].torrent без регистрации
Золото ЗОЛОТАЯ РАЗДАЧА! СКАЧАННОЕ НЕ ЗАСЧИТЫВАЕТСЯ! Золото
Дата: Зарегистрирован   [ Тип: внутренний ] Как тут cкачать?
MAGNET ссылка
MAGNET ссылка


Скачать .torrent

28 KB

Статус: проверено DHT
Скачан: торрент - 7646 раз, раздача полностью - 223 раз
Размер: 5 GB
Оценка:  - (Голосов: 0)
Поблагодарили: 0
Поделиться ссылкой на эту раздачу с друзьями:
В контактеFacebookОдноклассникиTwitterLivejournalМой МирLiveinternet
 

 
Показать сообщения:    


Вы не можете начинать темы
Вы не можете отвечать на сообщения
Вы не можете редактировать свои сообщения
Вы не можете удалять свои сообщения
Вы не можете голосовать в опросах
Вы не можете прикреплять файлы к сообщениям
Вы можете скачивать файлы