Loading...
Error

Скачать Ужас дома на воде / Ужас плавучего дома / Houseboat Horror (Кендал Флэнеган, Олли Мартин) [1989 г., ужасы, DVDRip] [AVO] (Дольский) торрент без регистрации

 
Статистика раздачи
Размер:  1,37 GB   |    Скачан:  129 раз
Сидов:  1  [  0 KB/s  ]  
 
Автор Сообщение

durik

[] 

Ужас дома на воде / Ужас плавучего дома / Houseboat Horror

Название: Ужас дома на воде / Ужас плавучего дома
Оригинальное название: Houseboat Horror
Год выхода: 1989
Жанр: ужасы
Режиссер: Кендал Флэнеган, Олли Мартин
В ролях: Алан Дэйл, Кристин Джестон, Крэйг Александр, Дес МакКенна, Гэвин Вуд, Джон Майкл Хаусон, Луиз Сиверсен, Пеппи Д'Ор, Стивен Уитэйкер, Джули Томпсон

О фильме:
Шумная рок-группа в сопровождении съемочной группы, чтобы снять клип на пустынном озере. Однажды ночью музыканты идут посетить местный паб, в то время как члены съемочной группы решают удовлетворить свои плотские фантазии на борту роскошного плавучего дома. Они настолько заняты, они не замечают, что неистовый сумасшедший неожиданно появляется на борту, и один за другим гибнут различными способами.



Страна: Австралия
Студия: PM Terror Productions
Продолжительность: 01:21:54
Перевод: Авторский одноголосый (закадровый) [Дольский]

Кодек: XviD / AVI
Качество: DVDRip
Видео: 688x368, 2064 kbps, 29.970 fps, 0.272 Bits/(Pixel*Frame)
Звук:
АС3, 48 kHz, 160 kbps, 2 ch - русский
АС3, 48 kHz, 160 kbps, 2 ch - english
Субтитры: Нет

Релиз от:

Автор рипа: Bathory
General
Complete name : F:Houseboat.Horror.1989.DVDRip.by_Bathory.avi
Format : AVI
Format/Info : Audio Video Interleave
File size : 1.37 GiB
Duration : 1h 21mn
Overall bit rate : 2 396 Kbps

Video
ID : 0
Format : MPEG-4 Visual
Format profile : Advanced Simple@L5
Format settings, BVOP : 1
Format settings, QPel : No
Format settings, GMC : No warppoints
Format settings, Matrix : Default (H.263)
Muxing mode : Packed bitstream
Codec ID : XVID
Codec ID/Hint : XviD
Duration : 1h 21mn
Bit rate : 2 064 Kbps
Width : 688 pixels
Height : 368 pixels
Display aspect ratio : 1.85:1
Frame rate : 29.970 fps
Color space : YUV
Chroma subsampling : 4:2:0
Bit depth : 8 bits
Scan type : Progressive
Compression mode : Lossy
Bits/(Pixel*Frame) : 0.272
Stream size : 1.18 GiB (86%)
Writing library : XviD 1.2.1 (UTC 2008-12-04)

Audio #1
ID : 1
Format : AC-3
Format/Info : Audio Coding 3
Mode extension : CM (complete main)
Format settings, Endianness : Big
Codec ID : 2000
Duration : 1h 21mn
Bit rate mode : Constant
Bit rate : 160 Kbps
Channel count : 2 channels
Channel positions : Front: L R
Sampling rate : 48.0 KHz
Bit depth : 16 bits
Compression mode : Lossy
Stream size : 93.7 MiB (7%)
Alignment : Aligned on interleaves
Interleave, duration : 64 ms (1.92 video frames)
Interleave, preload duration : 192 ms
Title : VTS_01_1 T80 2_0ch 192Kbps DELAY 0ms_new

Audio #2
ID : 2
Format : AC-3
Format/Info : Audio Coding 3
Mode extension : CM (complete main)
Format settings, Endianness : Big
Codec ID : 2000
Duration : 1h 21mn
Bit rate mode : Constant
Bit rate : 160 Kbps
Channel count : 2 channels
Channel positions : Front: L R
Sampling rate : 48.0 KHz
Bit depth : 16 bits
Compression mode : Lossy
Stream size : 93.7 MiB (7%)
Alignment : Aligned on interleaves
Interleave, duration : 64 ms (1.92 video frames)
Interleave, preload duration : 192 ms
Title : VTS_01_1 T81 2_0ch 192Kbps DELAY 0ms_new



Скачать Ужас.дома.на.воде.Ужас.плавучего.дома.Houseboat.Horror.(Кендал.Флэнеган.Олли.Мартин).[1989.г.ужасы.DVDRip].[AVO].(Дольский).torrent без регистрации
Золото ЗОЛОТАЯ РАЗДАЧА! СКАЧАННОЕ НЕ ЗАСЧИТЫВАЕТСЯ! Золото
Дата: Зарегистрирован   [ Тип: внутренний ] Как тут cкачать?
MAGNET ссылка
MAGNET ссылка


Скачать .torrent

14 KB

Статус: проверено DHT
Скачан: торрент - 129 раз, раздача полностью - 13 раз
Размер: 1,37 GB
Оценка:  5 (Голосов: 1)
Поблагодарили: 3
Поделиться ссылкой на эту раздачу с друзьями:
В контактеFacebookОдноклассникиTwitterLivejournalМой МирLiveinternet
 

 
Показать сообщения:    


Вы не можете начинать темы
Вы не можете отвечать на сообщения
Вы не можете редактировать свои сообщения
Вы не можете удалять свои сообщения
Вы не можете голосовать в опросах
Вы не можете прикреплять файлы к сообщениям
Вы можете скачивать файлы