Loading...
Error

Скачать Легенда о бойце / Huo Yuan-Jia (Юйэнь Воо-пин) [1982, боевые искусства, DVDRip] [AVO] торрент без регистрации

 
Статистика раздачи
Размер:  1,35 GB   |    Скачан:  103 раза
Сидов:  1  [  0 KB/s  ]  
 
Автор Сообщение

Marsianka

[] 

Информация о фильме
Название: Легенда о бойце
Оригинальное название: Huo Yuan-Jia
Год выхода: 1982
Жанр: боевые искусства
Режиссер: Юйэнь Воо-пин
В ролях: Ят Чор Юэнь, Ка-Ян Леунг, Ясуаки Курата, Йао Лин Чен, Фэнг Йе, Фенг Фенг, Фунг Харк-Он, Ха Хуанг, Филлип Ко, Hok Nin Lau, Ка Тинг Ли, Сю-Люн Люн, Хуанг-хси Лью, Квай Шан, Брэнди Юэнь, Чеунг-Ян Юэнь, Пин-Ао Вэй

О фильме:
Мастер кунг-фу, владеющий тайными знаниями, основывающимися на специальных дыхательных тренировках, обучает своих сыновей этим премудростям, обделяя вниманием младшего. Как всегда в борьбе за то, кто лучше, находятся охотники узнать секреты данного искусства. Обделённый вниманием герой, благодаря учителю-японцу, который оказывается нарочно подосланным, познаёт тайны боевых искусств и после упорных тренировок становится лучшим бойцом округи.


Страна: Китай, Гонконг
Студия: Seasonal Film Corporation
Продолжительность: 1:28:47
Перевод: Авторский, одноголосый (Александр Кузнецов)

Файл
Кодек: XviD
Качество: DVDRip
Видео: 720x384, 2042 Kbps, 25.000 fps
Звук: MP3, 48.0 KHz, 2 ch, 128 Kbps
Субтитры: Нет
Format : AVI
Format/Info : Audio Video Interleave
File size : 1.35 GiB
Duration : 1h 28mn
Overall bit rate : 2 180 Kbps
Writing application : VirtualDubMod 1.5.10.2 (build 2540/release)
Writing library : VirtualDubMod build 2540/release

Video
ID : 0
Format : MPEG-4 Visual
Format profile : Advanced Simple@L5
Format settings, BVOP : 3
Format settings, QPel : Yes
Format settings, GMC : 3 warppoints
Format settings, Matrix : Default (H.263)
Codec ID : XVID
Codec ID/Hint : XviD
Duration : 1h 28mn
Bit rate : 2 042 Kbps
Width : 720 pixels
Height : 384 pixels
Display aspect ratio : 1.85:1
Frame rate : 25.000 fps
Color space : YUV
Chroma subsampling : 4:2:0
Bit depth : 8 bits
Scan type : Progressive
Compression mode : Lossy
Bits/(Pixel*Frame) : 0.295
Stream size : 1.27 GiB (94%)
Writing library : XviD 1.2.0.dev47 (UTC 2006-11-01)

Audio
ID : 1
Format : MPEG Audio
Format version : Version 1
Format profile : Layer 3
Codec ID : 55
Codec ID/Hint : MP3
Duration : 1h 28mn
Bit rate mode : Constant
Bit rate : 128 Kbps
Channel count : 2 channels
Sampling rate : 48.0 KHz
Compression mode : Lossy
Stream size : 81.3 MiB (6%)
Alignment : Aligned on interleaves
Interleave, duration : 40 ms (1.00 video frame)
Interleave, preload duration : 504 ms
Writing library : LAME3.97
Encoding settings : -m s -V 4 -q 2 -lowpass 17 -b 128



Скачать Легенда.о.бойце.Huo.Yuan-Jia.(Юйэнь.Воо-пин).[1982.боевые.искусства.DVDRip].[AVO].torrent без регистрации
Золото ЗОЛОТАЯ РАЗДАЧА! СКАЧАННОЕ НЕ ЗАСЧИТЫВАЕТСЯ! Золото
Дата: Зарегистрирован   [ Тип: внутренний ] Как тут cкачать?
MAGNET ссылка
MAGNET ссылка


Скачать .torrent

14 KB

Статус: проверено DHT
Скачан: торрент - 103 раз, раздача полностью - 6 раз
Размер: 1,35 GB
Оценка:  - (Голосов: 0)
Поблагодарили: 0
Поделиться ссылкой на эту раздачу с друзьями:
В контактеFacebookОдноклассникиTwitterLivejournalМой МирLiveinternet
 

 
Показать сообщения:    


Вы не можете начинать темы
Вы не можете отвечать на сообщения
Вы не можете редактировать свои сообщения
Вы не можете удалять свои сообщения
Вы не можете голосовать в опросах
Вы не можете прикреплять файлы к сообщениям
Вы можете скачивать файлы