Loading...
Error

Скачать Сабля от коменданта / Szabla od komendanta (Ян Якуб Кольский) [1996, комедия, DVDRip] [VO]+[Оригинал] торрент без регистрации

 
Статистика раздачи
Размер:  1,46 GB   |    Скачан:  107 раз
Сидов:  1  [  0 KB/s  ]  
 
Автор Сообщение

Marsianka

[] 

Страна: Польша
Производство: PIF "ODRA-FILM "
Жанр: комедия
Год выпуска: 1996

Продолжительность: 01:40:56

Перевод: Любительский одноголосый

Оригинальная аудиодорожка: Польская

Cубтитры: Нет

Режиссер: Ян Якуб Кольский

В ролях: Бронислав Павлик, Франчишек Печка, Веслав Голас, Витольд Пыркош, Гражина Бленцка-Кольска, Войцех Маляйкат, Анна Майхер, Анджей Грабовски, Николай Грабовски



Описание: В небольшой польской деревне живут четверо старых друзей, служивших когда-то кавалеристами в Легионах Пилсудского. Живут себе, поживают, вспоминая дела минувших дней и давно пропитые награды за отвагу, полученные от самого Коменданта. Только самый старший из них, Якубек, бережно хранит свою саблю. С ней он и просит друзей похоронить его и серьёзно готовится к переходу в мир иной, где уже 50 лет ждёт его первая любовь, погибшая от шальной большевистской пули. Но Апостол Пётр не пускает героя трёх войн в Рай с саблей, а сам Комендант, вышедший на шум, приказывает ему повернуть назад, напомнив о присяге перед смертью передать саблю внуку, в честь священной традиции польских легионеров. Но вот беда внуков у Якубека нет, потому что его единственный сын, ботаник, интересуется не женщинами, а только учёбой и выведением гигантских сливогруш, в надежде побить рекорды Мичурина и Лысенко и высадить морозостойкие саженцы на Северном полюсе. Поэтому четыре кавалериста берут на себя задачу женить ничего не подозревающего Янечка, даже против его воли. Для этого им приходится выкидывать разнообразнейшие фортели, а фантазии нашим ветеранам не занимать

Исходник: DVD5 R1

Тип релиза: DVDRip

Контейнер: AVI

Видео: 704x464 (1.52:1), 23.976 fps, XviD ~1605 kbps avg, 0.20 bit/pixel
Аудио: #1: 48 kHz, AC3 2.0 ~192.00 kbps avg (RUS)
Аудио: #2: 48 kHz, AC3 2.0 ~256.00 kbps avg (POL)
Общее
Полное имя : D:1АААСабля от коменданта.avi
Формат : AVI
Формат/Информация : Audio Video Interleave
Размер файла : 1,46 Гбайт
Продолжительность : 1 ч. 40 м.
Общий поток : 2068 Кбит/сек
Программа кодирования : VirtualDubMod 1.5.10.2 (build 2540/release)
Библиотека кодирования : VirtualDubMod build 2540/release

Видео
Идентификатор : 0
Формат : MPEG-4 Visual
Профиль формата : Advanced Simple@L5
Параметр BVOP формата : 2
Параметр QPel формата : Нет
Параметр GMC формата : Без точки перехода
Параметр матрицы формата : Default (MPEG)
Режим смешивания : Сжатый битовый поток
Идентификатор кодека : XVID
Идентификатор кодека/Подсказка : XviD
Продолжительность : 1 ч. 40 м.
Битрейт : 1606 Кбит/сек
Ширина : 704 пикселя
Высота : 464 пикселя
Соотношение сторон : 3:2
Частота кадров : 23,976 кадра/сек
Цветовое пространство : YUV
Субдискретизация насыщенности : 4:2:0
Битовая глубина : 8 бит
Тип развёртки : Прогрессивная
Метод сжатия : С потерями
Бит/(Пиксели*Кадры) : 0.205
Размер потока : 1,13 Гбайт (78%)
Библиотека кодирования : XviD 1.2.1 (UTC 2008-12-04)

Аудио #1
Идентификатор : 1
Формат : AC-3
Формат/Информация : Audio Coding 3
Расширение режима : CM (complete main)
Параметр Endianness формата : Big
Идентификатор кодека : 2000
Продолжительность : 1 ч. 40 м.
Вид битрейта : Постоянный
Битрейт : 192 Кбит/сек
Каналы : 2 канала
Расположение каналов : Front: L R
Частота : 48,0 КГц
Битовая глубина : 16 бит
Метод сжатия : С потерями
Размер потока : 139 Мбайт (9%)
Выравнивание : Разделение по промежуткам
Продолжительность промежутка : 42 мс. (1,00 видеокадр)
Время предзагрузки промежутка : 500 мс.

Аудио #2
Идентификатор : 2
Формат : AC-3
Формат/Информация : Audio Coding 3
Расширение режима : CM (complete main)
Параметр Endianness формата : Big
Идентификатор кодека : 2000
Продолжительность : 1 ч. 40 м.
Вид битрейта : Постоянный
Битрейт : 256 Кбит/сек
Каналы : 2 канала
Расположение каналов : Front: L R
Частота : 48,0 КГц
Битовая глубина : 16 бит
Метод сжатия : С потерями
Размер потока : 185 Мбайт (12%)
Выравнивание : Разделение по промежуткам
Продолжительность промежутка : 42 мс. (1,00 видеокадр)
Время предзагрузки промежутка : 500 мс.
Релиз группа:

Автор рипа:



Скачать Сабля.от.коменданта.Szabla.od.komendanta.(Ян.Якуб.Кольский).[1996.комедия.DVDRip].[VO]+[Оригинал].torrent без регистрации
Золото ЗОЛОТАЯ РАЗДАЧА! СКАЧАННОЕ НЕ ЗАСЧИТЫВАЕТСЯ! Золото
Дата: Зарегистрирован   [ Тип: внутренний ] Как тут cкачать?
MAGNET ссылка
MAGNET ссылка


Скачать .torrent

15 KB

Статус: проверено DHT
Скачан: торрент - 107 раз, раздача полностью - 11 раз
Размер: 1,46 GB
Оценка:  - (Голосов: 0)
Поблагодарили: 2
Поделиться ссылкой на эту раздачу с друзьями:
В контактеFacebookОдноклассникиTwitterLivejournalМой МирLiveinternet
 

 
Показать сообщения:    


Вы не можете начинать темы
Вы не можете отвечать на сообщения
Вы не можете редактировать свои сообщения
Вы не можете удалять свои сообщения
Вы не можете голосовать в опросах
Вы не можете прикреплять файлы к сообщениям
Вы можете скачивать файлы