Loading...
Error

Скачать Как я встретил вашу маму / How I Met Your Mother (09х01-10) (Картер Бэйс, Памела Фрайман, Крейг Томас) [2012, мелодрама, комедия, HDTVRip-AVC] [VO (Кураж-Бамбей)] торрент без регистрации

 
Статистика раздачи
Размер:  1,72 GB   |    Скачан:  3096 раз
Сидов:  1  [  0 KB/s  ]  
 
Автор Сообщение

МихаНЕзатор

[] 

Как я встретил вашу маму / How I Met Your Mother


Год выпуска: 2013
Страна: США
Жанр: мелодрама, комедия
Продолжительность: 00:25:00

Перевод: Профессиональный (одноголосый закадровый) Кураж-Бамбей
Русские субтитры: нет
Режиссёр: Картер Бэйс / Carter Bays, Памела Фрайман / Pamela Fryman, Крейг Томас / Craig Thomas

В ролях: Джош Рэднор, Джейсон Сигел, Коби Смолдерс, Нил Патрик Харрис, Элисон Хэннигэн

Описание: «Как я встретил вашу маму» комедия про Теда и про то, как он влюбился. Все неприятности начинаются с того, что лучший друг Теда, Маршалл, вдруг неожиданно сообщил, что он хочет сделать предложение своей давней подруге, Лили, воспитательнице детского сада. К тому времени Тед понимает, что ему нужно прилагать больше усилий, если он действительно надеется найти свою настоящую любовь. Помогает ему в этих поисках его друг Барни, убежденный холостяк, вечно со своим, иногда чересчур, мнением на все происходящее, со склонностью к костюмам и верным способом познакомиться с девушками. Когда Тед встречает Робин, он решает, что это любовь с первого взгляда, но у судьбы в запасе есть кое-что еще.



Качество: HDTVRip-AVC
Формат: MP4
Видео кодек: AVC
Аудио кодек: MP3
Видео: 720x404 (16/9), 23.976 fps, XViD ~1 019 Kbps (0.146 bit/pixel)
Аудио: 48 kHz, MPEG Layer 3, 2 ch, ~128.00 kbps avg

24.10.2013 г. торент обновлён, добавлена 5-10 серия!

General
Complete name : C:How_I_Met_Your_Mother_Season_9_(final)_by_PancakEater1-02 The Locket-Coming Back.mp4
Format : MPEG-4
Format profile : Base Media
Codec ID : isom
File size : 342 MiB
Duration : 41mn 37s
Overall bit rate mode : Variable
Overall bit rate : 1 149 Kbps
Encoded date : UTC 2013-09-27 08:42:04
Tagged date : UTC 2013-09-27 08:42:04
Writing application : Yamb 2.1.0.0 []http://yamb.unite-video.com]

Video
ID : 1
Format : AVC
Format/Info : Advanced Video Codec
Format profile : High@L3.1
Format settings, CABAC : Yes
Format settings, ReFrames : 5 frames
Codec ID : avc1
Codec ID/Info : Advanced Video Coding
Duration : 41mn 32s
Bit rate : 1 019 Kbps
Maximum bit rate : 3 529 Kbps
Width : 720 pixels
Height : 404 pixels
Display aspect ratio : 16:9
Frame rate mode : Constant
Frame rate : 23.976 fps
Color space : YUV
Chroma subsampling : 4:2:0
Bit depth : 8 bits
Scan type : Progressive
Bits/(Pixel*Frame) : 0.146
Stream size : 303 MiB (89%)
Writing library : x264 core 138 r2358 9e941d1
Encoding settings : cabac=1 / ref=5 / deblock=1:0:0 / analyse=0x3:0x113 / me=umh / subme=8 / psy=1 / psy_rd=1.00:0.00 / mixed_ref=1 / me_range=16 / chroma_me=1 / trellis=1 / 8x8dct=1 / cqm=0 / deadzone=21,11 / fast_pskip=1 / chroma_qp_offset=-2 / threads=18 / lookahead_threads=3 / sliced_threads=0 / nr=0 / decimate=1 / interlaced=0 / bluray_compat=0 / constrained_intra=0 / bframes=3 / b_pyramid=2 / b_adapt=2 / b_bias=0 / direct=3 / weightb=1 / open_gop=0 / weightp=2 / keyint=250 / keyint_min=23 / scenecut=40 / intra_refresh=0 / rc_lookahead=50 / rc=crf / mbtree=1 / crf=20.0 / qcomp=0.60 / qpmin=0 / qpmax=69 / qpstep=4 / ip_ratio=1.40 / aq=1:1.00
Encoded date : UTC 2013-09-23 02:31:51
Tagged date : UTC 2013-09-27 08:42:22
Matrix coefficients : BT.709

Audio
ID : 2
Format : AAC
Format/Info : Advanced Audio Codec
Format profile : LC
Codec ID : 40
Duration : 41mn 37s
Bit rate mode : Variable
Bit rate : 128 Kbps
Maximum bit rate : 156 Kbps
Channel(s) : 2 channels
Channel positions : Front: L R
Sampling rate : 44.1 KHz
Compression mode : Lossy
Stream size : 38.1 MiB (11%)
Encoded date : UTC 2013-09-27 08:42:21
Tagged date : UTC 2013-09-27 08:42:22



Скачать Как.я.встретил.вашу.маму.How.I.Met.Your.Mother.(09х01-10).(Картер.Бэйс.Памела.Фрайман.Крейг.Томас).[2012.мелодрама.комедия.HDTVRip-AVC].[VO.(Кураж-Бамбей)].torrent без регистрации
Золото ЗОЛОТАЯ РАЗДАЧА! СКАЧАННОЕ НЕ ЗАСЧИТЫВАЕТСЯ! Золото
Дата: Зарегистрирован   [ Тип: внутренний ] Как тут cкачать?
MAGNET ссылка
MAGNET ссылка


Скачать .torrent

18 KB

Статус: проверено DHT
Скачан: торрент - 3096 раз, раздача полностью - 0 раз
Размер: 1,72 GB
Оценка:  - (Голосов: 0)
Поблагодарили: 1
Поделиться ссылкой на эту раздачу с друзьями:
В контактеFacebookОдноклассникиTwitterLivejournalМой МирLiveinternet
 

 

МихаНЕзатор

[] 

Раздача обновлена
 
Показать сообщения:    


Вы не можете начинать темы
Вы не можете отвечать на сообщения
Вы не можете редактировать свои сообщения
Вы не можете удалять свои сообщения
Вы не можете голосовать в опросах
Вы не можете прикреплять файлы к сообщениям
Вы можете скачивать файлы