Loading...
Error

Скачать Признайте меня виновным / Find Me Guilty (Сидни Люмет) [2006, комедия, драма, криминал, биография, BDRip] [MVO]+[DVO]+[AVO]+[Оригинал]+[Sub] торрент без регистрации

 
Статистика раздачи
Размер:  3,12 GB   |    Скачан:  102 раза
Сидов:  1  [  0 KB/s  ]  
 
Автор Сообщение

Marsianka

[] 

Название: Признайте меня виновным
Оригинальное название: Find Me Guilty
Год выпуска: 2006
Жанр: комедия, драма, криминал, биография
Выпущено: США, Германия, Bob Yari Productions, Crossroads Entertainment (II), MHF Zweite Academy Film, One Race Productions, Syndicate Films International, Three Wolves Production
Режиссер: Сидни Люмет
В ролях: Вин Дизель, Алекс Рокко, Фрэнк Пьетранголаре, Ричард ДеДоменико, Джерри Грэйсон, Тони Рэй Росси, Винни Велла, Пол Боргез, Фрэнк Адонис, Алекса Палладино

О фильме: Когда полиции удаётся арестовать 20 членов мафиозного клана Луккези, Джеки ДиНоршио по прозвищу Толстяк Ди, уже отбывающий 30-летний тюремный срок, получает соблазнительное предложение: Джеки выйдет на волю досрочно, если даст показания против своих корешей. Но Толстяк Ди не стукач! На процессе, который станет самым долгим и самым скандальным судебным разбирательством в США, он будет защищать себя сам. Вступив в непредсказуемый и рискованный поединок с властями, этот наглец и остряк доведёт суд до абсурда, обратит факты против своих обвинителей и добьётся самого шокирующего вердикта в истории американского правосудия!



Качество: BDRip
Размер: 3.12 ГБ
Продолжительность: 02:04:40

Видео: XviD, 1907 Кбит/с, 720x400
Аудио: русский, 48 kHz, AC3, 6 ch, 448 kbps avg, [Профессиональный многоголосый, CP-Digital]

Внешние файлы
Аудио: русский, 48 kHz, AC3, 6 ch, 320 kbps avg, [Профессиональный двухголосый]
Аудио: русский, 48 kHz, AC3, 6 ch, 448 kbps avg, [Авторский, Дмитрий Есарев]
Аудио: английский, 48 kHz, AC3, 6 ch, 448 kbps avg, [Оригинал]
Субтитры: русские
Субтитры: английские
Берлинский кинофестиваль, 2006 год
Номинации (1):
Золотой Медведь
Killa

Да, Вин Дизель приятно удивил не только своей игрой, но и отрощенной шевелюрой. Очень рад за актёра, если он открывает в себе новые возможности актёрской игры, а не только героев боевиков.
По началу фильм представлялся очередной гангстерской комедией, в стиле «Анализируй это». Но постепенно стал превращаться в судебную драму, в которой показывается драма человеческих отношений. И всё было бы замечательно, если бы герой Вина Дизеля не превратил судебный зал в выяснение личных отношений со свидетелями. Нет, я, конечно, уважаю поступок Джекки ДиНоршио и не берусь винить его в неправильности действий, но фильм оказался не таким, каким я ожидал.

6 из 10
Кинопоиск
Общее
Полное имя : E:VideoPrizna'te.menja.vinovnym.2006.XviD.BDRipPrizna'te.menja.vinovnym.2006.AVO.rus.Д.Есарев.ac3
Формат : AC-3
Формат/Информация : Audio Coding 3
Размер файла : 400 Мбайт
Продолжительность : 2 ч. 4 м.
Режим общего битрейта : Постоянный
Общий поток : 448 Кбит/сек

Аудио
Формат : AC-3
Формат/Информация : Audio Coding 3
Расширение режима : CM (complete main)
Параметр Endianness формата : Big
Продолжительность : 2 ч. 4 м.
Вид битрейта : Постоянный
Битрейт : 448 Кбит/сек
Каналы : 6 каналов
Расположение каналов : Front: L C R, Side: L R, LFE
Частота : 48,0 КГц
Битовая глубина : 16 бит
Метод сжатия : С потерями
Размер потока : 400 Мбайт (100%)

Общее
Полное имя : E:VideoPrizna'te.menja.vinovnym.2006.XviD.BDRipPrizna'te.menja.vinovnym.2006.DVO.rus.ac3
Формат : AC-3
Формат/Информация : Audio Coding 3
Размер файла : 285 Мбайт
Продолжительность : 2 ч. 4 м.
Режим общего битрейта : Постоянный
Общий поток : 320 Кбит/сек

Аудио
Формат : AC-3
Формат/Информация : Audio Coding 3
Расширение режима : CM (complete main)
Параметр Endianness формата : Big
Продолжительность : 2 ч. 4 м.
Вид битрейта : Постоянный
Битрейт : 320 Кбит/сек
Каналы : 6 каналов
Расположение каналов : Front: L C R, Side: L R, LFE
Частота : 48,0 КГц
Битовая глубина : 16 бит
Метод сжатия : С потерями
Размер потока : 285 Мбайт (100%)

Общее
Полное имя : E:VideoPrizna'te.menja.vinovnym.2006.XviD.BDRipPrizna'te.menja.vinovnym.2006.eng.srt
Формат : SubRip
Размер файла : 145 Кбайт

Текст
Формат : SubRip
Метод сжатия : Без потерь

Общее
Полное имя : E:VideoPrizna'te.menja.vinovnym.2006.XviD.BDRipPrizna'te.menja.vinovnym.2006.Original.eng.ac3
Формат : AC-3
Формат/Информация : Audio Coding 3
Размер файла : 400 Мбайт
Продолжительность : 2 ч. 4 м.
Режим общего битрейта : Постоянный
Общий поток : 448 Кбит/сек

Аудио
Формат : AC-3
Формат/Информация : Audio Coding 3
Расширение режима : CM (complete main)
Параметр Endianness формата : Big
Продолжительность : 2 ч. 4 м.
Вид битрейта : Постоянный
Битрейт : 448 Кбит/сек
Каналы : 6 каналов
Расположение каналов : Front: L C R, Side: L R, LFE
Частота : 48,0 КГц
Битовая глубина : 16 бит
Метод сжатия : С потерями
Размер потока : 400 Мбайт (100%)

Общее
Полное имя : E:VideoPrizna'te.menja.vinovnym.2006.XviD.BDRipPrizna'te.menja.vinovnym.2006.rus.srt
Формат : SubRip
Размер файла : 162 Кбайт

Текст
Формат : SubRip
Метод сжатия : Без потерь

Общее
Полное имя : E:VideoPrizna'te.menja.vinovnym.2006.XviD.BDRipPrizna'te.menja.vinovnym.2006.XviD.BDRip.avi
Формат : AVI
Формат/Информация : Audio Video Interleave
Профиль формата : OpenDML
Размер файла : 2,06 Гбайт
Продолжительность : 2 ч. 4 м.
Общий поток : 2367 Кбит/сек
Программа кодирования : VirtualDubMod 1.5.10.2 (build 2540/release)
Библиотека кодирования : VirtualDubMod build 2540/release

Видео
Идентификатор : 0
Формат : MPEG-4 Visual
Профиль формата : Advanced Simple@L5
Параметр BVOP формата : 1
Параметр QPel формата : Нет
Параметр GMC формата : Без точки перехода
Параметр матрицы формата : Default (H.263)
Режим смешивания : Сжатый битовый поток
Идентификатор кодека : XVID
Идентификатор кодека/Подсказка : XviD
Продолжительность : 2 ч. 4 м.
Битрейт : 1907 Кбит/сек
Ширина : 720 пикселей
Высота : 400 пикселей
Соотношение сторон : 16:9
Частота кадров : 23,976 кадра/сек
Цветовое пространство : YUV
Субдискретизация насыщенности : 4:2:0
Битовая глубина : 8 бит
Тип развёртки : Прогрессивная
Метод сжатия : С потерями
Бит/(Пиксели*Кадры) : 0.276
Размер потока : 1,66 Гбайт (81%)
Библиотека кодирования : XviD 1.2.1 (UTC 2008-12-04)

Аудио
Идентификатор : 1
Формат : AC-3
Формат/Информация : Audio Coding 3
Расширение режима : CM (complete main)
Параметр Endianness формата : Big
Идентификатор кодека : 2000
Продолжительность : 2 ч. 4 м.
Вид битрейта : Постоянный
Битрейт : 448 Кбит/сек
Каналы : 6 каналов
Расположение каналов : Front: L C R, Side: L R, LFE
Частота : 48,0 КГц
Битовая глубина : 16 бит
Метод сжатия : С потерями
Размер потока : 399 Мбайт (19%)
Выравнивание : Разделение по промежуткам
Продолжительность промежутка : 42 мс. (1,00 видеокадр)
Время предзагрузки промежутка : 500 мс.



Скачать Признайте.меня.виновным.Find.Me.Guilty.(Сидни.Люмет).[2006.комедия.драма.криминал.биография.BDRip].[MVO]+[DVO]+[AVO]+[Оригинал]+[Sub].torrent без регистрации
Золото ЗОЛОТАЯ РАЗДАЧА! СКАЧАННОЕ НЕ ЗАСЧИТЫВАЕТСЯ! Золото
Дата: Зарегистрирован   [ Тип: внутренний ] Как тут cкачать?
MAGNET ссылка
MAGNET ссылка


Скачать .torrent

16 KB

Статус: проверено DHT
Скачан: торрент - 102 раз, раздача полностью - 19 раз
Размер: 3,12 GB
Оценка:  - (Голосов: 0)
Поблагодарили: 0
Поделиться ссылкой на эту раздачу с друзьями:
В контактеFacebookОдноклассникиTwitterLivejournalМой МирLiveinternet
 

 
Показать сообщения:    


Вы не можете начинать темы
Вы не можете отвечать на сообщения
Вы не можете редактировать свои сообщения
Вы не можете удалять свои сообщения
Вы не можете голосовать в опросах
Вы не можете прикреплять файлы к сообщениям
Вы можете скачивать файлы