Loading...
Error

Скачать Приключения раввина Якова / Les aventures de Rabbi Jacob (Жерар Ури) [1973, комедия, приключения, HDRip] [MVO] торрент без регистрации

 
Статистика раздачи
Размер:  1,46 GB   |    Скачан:  110 раз
Сидов:  1  [  0 KB/s  ]  
 
Автор Сообщение

Marsianka

[] 

Приключения раввина Якова / Les aventures de Rabbi Jacob
Год выпуска: 1973
Страна: Франция, Италия
Жанр: комедия, приключения
Продолжительность: 1:35:22
Перевод: Профессиональный (многоголосый закадровый)
Субтитры: нет

Режиссер: Жерар Ури / Gerard Oury

В ролях: Луи де Фюнес, Клод Жиро, Сюзи Делер, Марсель Далио, Ренцо Монтаньяни, Джанет Брандт, Андре Фалькон, Ксавье Желен, Анри Гибе и др.

Описание: Герой Луи де Фюнеса типичный француз. У него стабильный доход и масса милых сердцу предрассудков. Один из них четкое деление мира на«своих и чужих», «французов» и «всех прочих» просто не дает Виктору покоя. Впрочем, это мало беспокоит героя забияку и ортодокса пока дорога нечаянного приключения не оборачивается для него опасным путешествием в «большой мир». А там козни арабских террористов причудливо переплетаются с запутанной историей раввина Якова в Париж, а фабрика жевательной резинки становится полигоном для нешуточных баталий



Качество видео: HDRip [BDRip 1080p]
Формат видео: AVI
Видео кодек: XviD
Аудио кодек: AC3
Видео: 720x432 (1.67:1), 23.976 fps, XviD build 73 ~1798 kbps avg, 0.24 bit/pixel
Аудио: 48 kHz, AC3 Dolby Digital, 3/2 (L,C,R,l,r) + LFE ch, ~384 kbps
Раздача от:
D:Мои рипыLes Aventures De Rabbi Jacob.1973.HDRip.dexter_lex.avi
General
Complete name : D:Мои рипыLes Aventures De Rabbi Jacob.1973.HDRip.dexter_lex.avi
Format : AVI
Format/Info : Audio Video Interleave
File size : 1.46 GiB
Duration : 1h 35mn
Overall bit rate : 2 192 Kbps
Writing application : VirtualDubMod 1.5.10.3 | www.virtualdub-fr.org || (build 2550/release)
Writing library : VirtualDubMod build 2550/release
Video #0
ID : 0
Format : MPEG-4 Visual
Format profile : Advanced Simple@L5
Format settings, BVOP : 1
Format settings, QPel : No
Format settings, GMC : No warppoints
Format settings, Matrix : Custom
Codec ID : XVID
Codec ID/Hint : XviD
Duration : 1h 35mn
Bit rate : 1 799 Kbps
Width : 720 pixels
Height : 432 pixels
Display aspect ratio : 1.667
Frame rate : 23.976 fps
Color space : YUV
Chroma subsampling : 4:2:0
Bit depth : 8 bits
Scan type : Progressive
Compression mode : Lossy
Bits/(Pixel*Frame) : 0.241
Stream size : 1.20 GiB (82%)
Writing library : XviD 73
Audio #1
ID : 1
Format : AC-3
Format/Info : Audio Coding 3
Mode extension : CM (complete main)
Codec ID : 2000
Duration : 1h 35mn
Bit rate mode : Constant
Bit rate : 384 Kbps
Channel(s) : 6 channels
Channel positions : Front: L C R, Side: L R, LFE
Sampling rate : 48.0 KHz
Bit depth : 16 bits
Compression mode : Lossy
Stream size : 262 MiB (18%)
Alignment : Split accross interleaves
Interleave, duration : 42 ms (1.00 video frame)
Interleave, preload duration : 500 ms



Скачать Приключения.раввина.Якова.Les.aventures.de.Rabbi.Jacob.(Жерар.Ури).[1973.комедия.приключения.HDRip].[MVO].torrent без регистрации
Золото ЗОЛОТАЯ РАЗДАЧА! СКАЧАННОЕ НЕ ЗАСЧИТЫВАЕТСЯ! Золото
Дата: Зарегистрирован   [ Тип: внутренний ] Как тут cкачать?
MAGNET ссылка
MAGNET ссылка


Скачать .torrent

15 KB

Статус: проверено DHT
Скачан: торрент - 110 раз, раздача полностью - 49 раз
Размер: 1,46 GB
Оценка:  - (Голосов: 0)
Поблагодарили: 0
Поделиться ссылкой на эту раздачу с друзьями:
В контактеFacebookОдноклассникиTwitterLivejournalМой МирLiveinternet
 

 
Показать сообщения:    


Вы не можете начинать темы
Вы не можете отвечать на сообщения
Вы не можете редактировать свои сообщения
Вы не можете удалять свои сообщения
Вы не можете голосовать в опросах
Вы не можете прикреплять файлы к сообщениям
Вы можете скачивать файлы