Loading...
Error

/ Two and a Half Men ( 11) ( , ) [2013, , WEB-DL] [720p] [DVO (Jimmy J)]

 
16,78 GB   |    :  428
1  [  0 KB/s  ]  
 

[] 

Two and a Half Men - Eleventh Season
-


: 2013

:
:
: ~22 .
: ( )Jimmy J.
: ,

: , , , , , , , , , .
: , "" , - , . ? , .. - .





:
:
: Seasonvar
: WEB-DL 720p
: MKV
: AVC
: AC3
: AVC, 1276x720, 23.976 fps, 3920 kbps avg, 0.178 bit/pixel
#1: Russian 48 kHz, AC3 , 3 channels, 192 kbps( 2- 256 kbps) |Jimmy J.|
#2: English 48 kHz, AC3, 6 channels, 384 kbps |Eng|
: [srt]
3.0, . .


25.11.2014 . , 22- !

:

Complete name : D:\Two.and.a.Half.Men.S11.720p.WEB-DL.Jimmy.J\Two.and.a.Half.Men.S11E01.720p.WEB-DL.mkv
Format : Matroska
Format version : Version 2
File size : 701 MiB
Duration : 21mn 22s
Overall bit rate : 4 588 Kbps
Encoded date : UTC 2013-09-30 12:30:16
Writing application : mkvmerge v5.8.0 ('No Sleep / Pillow') built on Sep 2 2012 15:37:04
Writing library : libebml v1.2.3 + libmatroska v1.3.0
Video
ID : 1
Format : AVC
Format/Info : Advanced Video Codec
Format profile : High@L3.1
Format settings, CABAC : No
Format settings, ReFrames : 2 frames
Codec ID : V_MPEG4/ISO/AVC
Duration : 21mn 22s
Bit rate : 3 920 Kbps
Width : 1 276 pixels
Height : 720 pixels
Display aspect ratio : 16:9
Frame rate mode : Constant
Frame rate : 23.976 fps
Color space : YUV
Chroma subsampling : 4:2:0
Bit depth : 8 bits
Scan type : Progressive
Bits/(Pixel*Frame) : 0.178
Stream size : 599 MiB (85%)
Language : English
Default : Yes
Forced : No
Color primaries : BT.709
Transfer characteristics : BT.709
Matrix coefficients : BT.709
Audio #1
ID : 2
Format : AC-3
Format/Info : Audio Coding 3
Mode extension : CM (complete main)
Format settings, Endianness : Big
Codec ID : A_AC3
Duration : 21mn 22s
Bit rate mode : Constant
Bit rate : 192 Kbps
Channel(s) : 3 channels
Channel positions : Front: L C R
Sampling rate : 48.0 KHz
Bit depth : 16 bits
Compression mode : Lossy
Stream size : 29.4 MiB (4%)
Title : DVO Jimmy J.
Language : Russian
Default : Yes
Forced : No
Audio #2
ID : 3
Format : AC-3
Format/Info : Audio Coding 3
Mode extension : CM (complete main)
Format settings, Endianness : Big
Codec ID : A_AC3
Duration : 21mn 22s
Bit rate mode : Constant
Bit rate : 384 Kbps
Channel(s) : 6 channels
Channel positions : Front: L C R, Side: L R, LFE
Sampling rate : 48.0 KHz
Bit depth : 16 bits
Compression mode : Lossy
Stream size : 58.7 MiB (8%)
Language : English
Default : No
Forced : No
Text
ID : 4
Format : UTF-8
Codec ID : S_TEXT/UTF8
Codec ID/Info : UTF-8 Plain Text
Title : CC
Language : English
Default : No
Forced : No
Complete name : D:\Two.and.a.Half.Men.S11.720p.WEB-DL.Jimmy.J\Two.and.a.Half.Men.S11E06.720p.HDTVRip.mkv
Format : Matroska
Format version : Version 2
File size : 775 MiB
Duration : 21mn 13s
Overall bit rate : 5 105 Kbps
Encoded date : UTC 2013-11-13 17:27:14
Writing application : mkvmerge v5.8.0 ('No Sleep / Pillow') built on Sep 2 2012 15:37:04
Writing library : libebml v1.2.3 + libmatroska v1.3.0
Video
ID : 1
Format : AVC
Format/Info : Advanced Video Codec
Format profile : High@L4.1
Format settings, CABAC : Yes
Format settings, ReFrames : 6 frames
Codec ID : V_MPEG4/ISO/AVC
Duration : 21mn 13s
Bit rate : 4 620 Kbps
Width : 1 280 pixels
Height : 720 pixels
Display aspect ratio : 16:9
Frame rate mode : Constant
Frame rate : 23.976 fps
Color space : YUV
Chroma subsampling : 4:2:0
Bit depth : 8 bits
Scan type : Progressive
Bits/(Pixel*Frame) : 0.209
Stream size : 702 MiB (90%)
Writing library : x264 core 138 r2358kMod 9e941d1
Encoding settings : cabac=1 / ref=6 / deblock=1:-2:-2 / analyse=0x3:0x133 / me=umh / subme=9 / psy=1 / fade_compensate=0.00 / psy_rd=1.00:0.00 / mixed_ref=1 / me_range=16 / chroma_me=1 / trellis=2 / 8x8dct=1 / cqm=0 / deadzone=21,11 / fast_pskip=0 / chroma_qp_offset=-2 / threads=12 / lookahead_threads=2 / sliced_threads=0 / nr=0 / decimate=1 / interlaced=0 / bluray_compat=0 / constrained_intra=0 / bframes=7 / b_pyramid=2 / b_adapt=2 / b_bias=0 / direct=3 / weightb=1 / open_gop=0 / weightp=2 / keyint=240 / keyint_min=23 / scenecut=40 / intra_refresh=0 / rc_lookahead=60 / rc=crf / mbtree=0 / crf=17.9500 / qcomp=0.60 / qpmin=0 / qpmax=69 / qpstep=4 / vbv_maxrate=50000 / vbv_bufsize=62500 / crf_max=0.0 / nal_hrd=none / ip_ratio=1.40 / pb_ratio=1.25 / aq=2:0.90
Language : English
Default : Yes
Forced : No
Audio
ID : 2
Format : AC-3
Format/Info : Audio Coding 3
Mode extension : CM (complete main)
Format settings, Endianness : Big
Codec ID : A_AC3
Duration : 21mn 13s
Bit rate mode : Constant
Bit rate : 384 Kbps
Channel(s) : 6 channels
Channel positions : Front: L C R, Side: L R, LFE
Sampling rate : 48.0 KHz
Bit depth : 16 bits
Compression mode : Lossy
Stream size : 58.3 MiB (8%)
Default : Yes
Forced : No

! ; . , :
(1) ,
(2) ( ),
(3) , .
() ( - ), . , !
E , , .





....Two.and.a.Half.Men.(.11).(...).[2013..WEB-DL].[720p].[DVO.(Jimmy.J)].torrent
  ! ! 
:   [ : ] c?
MAGNET
MAGNET


.torrent

44 KB

: DHT
: - 428 , - 120
: 16,78 GB
- (: 0)
: 3
:
 FacebookTwitterLivejournal Liveinternet
 

 

[] 

.
 
: