Loading...
Error

Скачать Трофейная жена / Trophy Wife (01x01-07) (Джейсон Мур) [2013, комедия, WEB-DLRip] [MVO (Причудики)] торрент без регистрации

 
Статистика раздачи
Размер:  1,9 GB   |    Скачан:  121 раз
Сидов:  1  [  0 KB/s  ]  
 
Автор Сообщение

МихаНЕзатор

[] 

Трофейная жена / Trophy Wife


Год выпуска: 2013
Страна: США
Жанр: комедия
Продолжительность: ~ 00:22:00
Перевод: Любительский (многоголосый закадровый) [Причудики]
Субтитры: Русские (Notabenoid), Английские (iTunes)
Режиссёр: Джейсон Мур

В ролях: Альберт Тсаи, Малин Акерман, Брэдли Уитфорд, Райан Ли, Бэйли Мэдисон, Михаэлла Уоткинс, Натали Моралес, Филлис Смит

Описание: Кейт упав на одной шумной вечеринке в караоке баре прямо на руки к незнакомому мужчине средних лет, получила будущего мужа! Но не только его одного, вместе с ним она получила двух бывших жен своего муженька и троих детей. Диана первая бывшая жена по профессии врач, до ужаса ревнивая стерва и мать двух тинейджеров по имени Уоррен и Хиллари. Джеки вторая бывшая жена нервная мать усыновленного маленького китайца по имени Берт. Эта невероятная комедия является аналогом знаменитого фильма «Мачеха».

Качество: WEB-DLRip
Формат: AVI
Видео кодек: XviD
Аудио кодек: MP3
Видео: 720x400 (1.80:1), 23.976 fps, ~1494 kbps avg, 0.22 bit/pixel
Аудио #1: 48 kHz, MPEG Layer 3, 2 ch, ~128.00 kbps avg (Rus)
Аудио #2: 48 kHz, MPEG Layer 3, 2 ch, ~128.00 kbps avg (Eng)



Релиз: Причудики
Перевод: Нотабеноид
Редакция перевода: Osmosis_Johnes, schemer, s_prichudami
Монтаж: marchelush
Озвучка: С Причудами, Оксана Тимофеева, Ленар Гиматдинов, Никита Пугач

12.01.2014 г. торент обновлён, добавлена 6-7 серия!

Complete name : Trophy.Wife.S01E01.WEB-DLRip.Rus.Eng.Subs-Priciudiki.avi
Format : AVI
Format/Info : Audio Video Interleave
File size : 280 MiB
Duration : 22mn 3s
Overall bit rate : 1 773 Kbps

Video
ID : 0
Format : MPEG-4 Visual
Format profile : Advanced Simple@L5
Format settings, BVOP : 1
Format settings, QPel : No
Format settings, GMC : No warppoints
Format settings, Matrix : Default (MPEG)
Codec ID : XVID
Codec ID/Hint : XviD
Duration : 22mn 3s
Bit rate : 1 496 Kbps
Width : 720 pixels
Height : 400 pixels
Display aspect ratio : 16:9
Frame rate : 23.976 fps
Color space : YUV
Chroma subsampling : 4:2:0
Bit depth : 8 bits
Scan type : Progressive
Compression mode : Lossy
Bits/(Pixel*Frame) : 0.217
Stream size : 236 MiB (84%)
Writing library : XviD 64

Audio #1
ID : 1
Format : MPEG Audio
Format version : Version 1
Format profile : Layer 3
Mode : Joint stereo
Mode extension : MS Stereo
Codec ID : 55
Codec ID/Hint : MP3
Duration : 22mn 3s
Bit rate mode : Constant
Bit rate : 128 Kbps
Channel(s) : 2 channels
Sampling rate : 48.0 KHz
Compression mode : Lossy
Stream size : 20.2 MiB (7%)
Alignment : Aligned on interleaves
Interleave, duration : 24 ms (0.58 video frame)
Interleave, preload duration : 192 ms
Title : Rus (Prichudiki)
Writing library : LAME3.99r
Encoding settings : -m j -V 4 -q 3 -lowpass 17 -b 128

Audio #2
ID : 2
Format : MPEG Audio
Format version : Version 1
Format profile : Layer 3
Mode : Joint stereo
Mode extension : MS Stereo
Codec ID : 55
Codec ID/Hint : MP3
Duration : 22mn 3s
Bit rate mode : Constant
Bit rate : 128 Kbps
Channel(s) : 2 channels
Sampling rate : 48.0 KHz
Compression mode : Lossy
Stream size : 20.2 MiB (7%)
Alignment : Aligned on interleaves
Interleave, duration : 24 ms (0.58 video frame)
Interleave, preload duration : 192 ms
Title : Eng
Writing library : LAME3.99r
Encoding settings : -m j -V 4 -q 3 -lowpass 17 -b 128

Внимание! Раздача ведётся путём добавления новых серий; при каждом добавлении создаётся новый торрент. Чтобы начать докачку новой серии, пользователям необходимо сделать следующее: (1) остановить скачивание, (2) удалить старый торрент у себя из клиента (старые серии удалять не надо), (3) скачать новый торрент и запустить его у себя в клиенте вместо старого, при этом указать клиенту путь в старую папку куда и должно происходить скачивание новых серий.
Ваш клиент при этом должен произвести хеширование (проверку) старой папки (если не производит сам - помогите ему сделать это), и будет докачивать только те серии которых у вас ещё нет. Старые серии при этом не удаляются, а продолжают раздаваться!
Eсли вы уже удалили старые серии, то предотвратить повторную закачку старых серий можно, отжав галочку в соответствующих местах при запуске нового торрента.



Скачать Трофейная.жена.Trophy.Wife.(01x01-07).(Джейсон.Мур).[2013.комедия.WEB-DLRip].[MVO.(Причудики)].torrent без регистрации
Золото ЗОЛОТАЯ РАЗДАЧА! СКАЧАННОЕ НЕ ЗАСЧИТЫВАЕТСЯ! Золото
Дата: Зарегистрирован   [ Тип: внутренний ] Как тут cкачать?
MAGNET ссылка
MAGNET ссылка


Скачать .torrent

21 KB

Статус: проверено DHT
Скачан: торрент - 121 раз, раздача полностью - 0 раз
Размер: 1,9 GB
Оценка:  - (Голосов: 0)
Поблагодарили: 1
Поделиться ссылкой на эту раздачу с друзьями:
В контактеFacebookОдноклассникиTwitterLivejournalМой МирLiveinternet
 

 

МихаНЕзатор

[] 

Раздача обновлена.
 
Показать сообщения:    


Вы не можете начинать темы
Вы не можете отвечать на сообщения
Вы не можете редактировать свои сообщения
Вы не можете удалять свои сообщения
Вы не можете голосовать в опросах
Вы не можете прикреплять файлы к сообщениям
Вы можете скачивать файлы