Loading...
Error

Скачать Трофейная жена / Trophy Wife (01x01) (Джейсон Мур) [2013, комедия, WEB-DL] [720p] [MVO (Причудики)] торрент без регистрации

 
Статистика раздачи
Размер:  1,51 GB   |    Скачан:  103 раза
Сидов:  1  [  0 KB/s  ]  
 
Автор Сообщение

МихаНЕзатор

[] 

Трофейная жена / Trophy Wife


Год выпуска: 2013
Страна: США
Жанр: комедия
Продолжительность: ~ 00:22:00
Перевод: Любительский (многоголосый закадровый) [Причудики]
Субтитры: Русские (Notabenoid), Английские (iTunes)
Режиссёр: Джейсон Мур

В ролях: Альберт Тсаи, Малин Акерман, Брэдли Уитфорд, Райан Ли, Бэйли Мэдисон, Михаэлла Уоткинс, Натали Моралес, Филлис Смит

Описание: Кейт упав на одной шумной вечеринке в караоке баре прямо на руки к незнакомому мужчине средних лет, получила будущего мужа! Но не только его одного, вместе с ним она получила двух бывших жен своего муженька и троих детей. Диана первая бывшая жена по профессии врач, до ужаса ревнивая стерва и мать двух тинейджеров по имени Уоррен и Хиллари. Джеки вторая бывшая жена нервная мать усыновленного маленького китайца по имени Берт. Эта невероятная комедия является аналогом знаменитого фильма «Мачеха».

Качество: WEB-DL 720p
Формат: MKV
Видео кодек: AVC
Аудио кодек: AC3
Видео: AVC, 1280x720 (16:9), 23.976 fps, 4 199 Kbps (0.190 bit/pixel)
Аудио #1: AC3, 48 KHz, 6 ch, 384 Kbps (Rus)
Аудио #2: AC3, 48 KHz, 6 ch, 384 Kbps (Eng)



]Релиз: Причудики
Перевод: Нотабеноид
Редакция перевода: Osmosis_Johnes, schemer, s_prichudami
Монтаж: marchelush
Озвучка: С Причудами, Оксана Тимофеева, Ленар Гиматдинов, Никита Пугач

Complete name : Trophy.Wife.S01E01.720p.WEB-DL.Rus.Eng.Subs-Priciudiki.mkv
Format : Matroska
Format version : Version 4 / Version 2
File size : 799 MiB
Duration : 22mn 3s
Overall bit rate : 5 067 Kbps
Encoded date : UTC 2013-10-01 22:16:52
Writing application : mkvmerge v6.1.0 ('Old Devil') built on Mar 4 2013 09:10:42
Writing library : libebml v1.3.0 + libmatroska v1.4.0

Video
ID : 1
Format : AVC
Format/Info : Advanced Video Codec
Format profile : High@L3.1
Format settings, CABAC : No
Format settings, ReFrames : 2 frames
Codec ID : V_MPEG4/ISO/AVC
Duration : 22mn 3s
Bit rate : 4 199 Kbps
Width : 1 280 pixels
Height : 720 pixels
Display aspect ratio : 16:9
Frame rate mode : Constant
Frame rate : 23.976 fps
Color space : YUV
Chroma subsampling : 4:2:0
Bit depth : 8 bits
Scan type : Progressive
Bits/(Pixel*Frame) : 0.190
Stream size : 662 MiB (83%)
Language : English
Default : Yes
Forced : No
Color primaries : BT.709
Transfer characteristics : BT.709
Matrix coefficients : BT.709

Audio #1
ID : 2
Format : AC-3
Format/Info : Audio Coding 3
Mode extension : CM (complete main)
Format settings, Endianness : Big
Codec ID : A_AC3
Duration : 22mn 3s
Bit rate mode : Constant
Bit rate : 384 Kbps
Channel(s) : 6 channels
Channel positions : Front: L C R, Side: L R, LFE
Sampling rate : 48.0 KHz
Bit depth : 16 bits
Compression mode : Lossy
Stream size : 60.6 MiB (8%)
Language : Russian
Default : Yes
Forced : No

Audio #2
ID : 3
Format : AC-3
Format/Info : Audio Coding 3
Mode extension : CM (complete main)
Format settings, Endianness : Big
Codec ID : A_AC3
Duration : 22mn 3s
Bit rate mode : Constant
Bit rate : 384 Kbps
Channel(s) : 6 channels
Channel positions : Front: L C R, Side: L R, LFE
Sampling rate : 48.0 KHz
Bit depth : 16 bits
Compression mode : Lossy
Stream size : 60.6 MiB (8%)
Language : English
Default : No
Forced : No

Text #1
ID : 4
Format : UTF-8
Codec ID : S_TEXT/UTF8
Codec ID/Info : UTF-8 Plain Text
Language : Russian
Default : No
Forced : No

Text #2
ID : 5
Format : UTF-8
Codec ID : S_TEXT/UTF8
Codec ID/Info : UTF-8 Plain Text
Language : English
Default : No
Forced : No

Внимание! Раздача ведётся путём добавления новых серий; при каждом добавлении создаётся новый торрент. Чтобы начать докачку новой серии, пользователям необходимо сделать следующее: (1) остановить скачивание, (2) удалить старый торрент у себя из клиента (старые серии удалять не надо), (3) скачать новый торрент и запустить его у себя в клиенте вместо старого, при этом указать клиенту путь в старую папку куда и должно происходить скачивание новых серий.
Ваш клиент при этом должен произвести хеширование (проверку) старой папки (если не производит сам - помогите ему сделать это), и будет докачивать только те серии которых у вас ещё нет. Старые серии при этом не удаляются, а продолжают раздаваться!
Eсли вы уже удалили старые серии, то предотвратить повторную закачку старых серий можно, отжав галочку в соответствующих местах при запуске нового торрента.



Скачать Трофейная.жена.Trophy.Wife.(01x01).(Джейсон.Мур).[2013.комедия.WEB-DL].[720p].[MVO.(Причудики)].torrent без регистрации
Золото ЗОЛОТАЯ РАЗДАЧА! СКАЧАННОЕ НЕ ЗАСЧИТЫВАЕТСЯ! Золото
Дата: Зарегистрирован   [ Тип: внутренний ] Как тут cкачать?
MAGNET ссылка
MAGNET ссылка


Скачать .torrent

16 KB

Статус: проверено DHT
Скачан: торрент - 103 раз, раздача полностью - 2 раз
Размер: 1,51 GB
Оценка:  - (Голосов: 0)
Поблагодарили: 0
Поделиться ссылкой на эту раздачу с друзьями:
В контактеFacebookОдноклассникиTwitterLivejournalМой МирLiveinternet
 

 
Показать сообщения:    


Вы не можете начинать темы
Вы не можете отвечать на сообщения
Вы не можете редактировать свои сообщения
Вы не можете удалять свои сообщения
Вы не можете голосовать в опросах
Вы не можете прикреплять файлы к сообщениям
Вы можете скачивать файлы